  0
SECTION
  2
HEADER
  9
$ACADVER
  1
AC1018
  9
$ACADMAINTVER
 70
     0
  9
$DWGCODEPAGE
  3
ANSI_1252
  9
$INSBASE
 10
0.0
 20
0.0
 30
0.0
  9
$EXTMIN
 10
-90.22500003548873
 20
324.7554916642615
 30
0.0
  9
$EXTMAX
 10
206.7749999645093
 20
534.7554916642616
 30
0.0
  9
$LIMMIN
 10
0.0
 20
0.0
  9
$LIMMAX
 10
12.0
 20
9.0
  9
$ORTHOMODE
 70
     0
  9
$REGENMODE
 70
     1
  9
$FILLMODE
 70
     1
  9
$QTEXTMODE
 70
     0
  9
$MIRRTEXT
 70
     1
  9
$LTSCALE
 40
1.0
  9
$ATTMODE
 70
     1
  9
$TEXTSIZE
 40
0.2
  9
$TRACEWID
 40
0.05
  9
$TEXTSTYLE
  7
Standard
  9
$CLAYER
  8
0
  9
$CELTYPE
  6
ByLayer
  9
$CECOLOR
 62
   256
  9
$CELTSCALE
 40
1.0
  9
$DISPSILH
 70
     0
  9
$DIMSCALE
 40
1.0
  9
$DIMASZ
 40
0.18
  9
$DIMEXO
 40
0.0625
  9
$DIMDLI
 40
0.38
  9
$DIMRND
 40
0.0
  9
$DIMDLE
 40
0.0
  9
$DIMEXE
 40
0.18
  9
$DIMTP
 40
0.0
  9
$DIMTM
 40
0.0
  9
$DIMTXT
 40
0.18
  9
$DIMCEN
 40
0.09
  9
$DIMTSZ
 40
0.0
  9
$DIMTOL
 70
     0
  9
$DIMLIM
 70
     0
  9
$DIMTIH
 70
     1
  9
$DIMTOH
 70
     1
  9
$DIMSE1
 70
     0
  9
$DIMSE2
 70
     0
  9
$DIMTAD
 70
     0
  9
$DIMZIN
 70
     0
  9
$DIMBLK
  1

  9
$DIMASO
 70
     1
  9
$DIMSHO
 70
     1
  9
$DIMPOST
  1

  9
$DIMAPOST
  1

  9
$DIMALT
 70
     0
  9
$DIMALTD
 70
     2
  9
$DIMALTF
 40
25.4
  9
$DIMLFAC
 40
1.0
  9
$DIMTOFL
 70
     0
  9
$DIMTVP
 40
0.0
  9
$DIMTIX
 70
     0
  9
$DIMSOXD
 70
     0
  9
$DIMSAH
 70
     0
  9
$DIMBLK1
  1

  9
$DIMBLK2
  1

  9
$DIMSTYLE
  2
Standard
  9
$DIMCLRD
 70
     0
  9
$DIMCLRE
 70
     0
  9
$DIMCLRT
 70
     0
  9
$DIMTFAC
 40
1.0
  9
$DIMGAP
 40
0.09
  9
$DIMJUST
 70
     0
  9
$DIMSD1
 70
     0
  9
$DIMSD2
 70
     0
  9
$DIMTOLJ
 70
     1
  9
$DIMTZIN
 70
     0
  9
$DIMALTZ
 70
     0
  9
$DIMALTTZ
 70
     0
  9
$DIMUPT
 70
     0
  9
$DIMDEC
 70
     4
  9
$DIMTDEC
 70
     4
  9
$DIMALTU
 70
     2
  9
$DIMALTTD
 70
     2
  9
$DIMTXSTY
  7
Standard
  9
$DIMAUNIT
 70
     0
  9
$DIMADEC
 70
     0
  9
$DIMALTRND
 40
0.0
  9
$DIMAZIN
 70
     0
  9
$DIMDSEP
 70
    46
  9
$DIMATFIT
 70
     3
  9
$DIMFRAC
 70
     0
  9
$DIMLDRBLK
  1

  9
$DIMLUNIT
 70
     2
  9
$DIMLWD
 70
    -2
  9
$DIMLWE
 70
    -2
  9
$DIMTMOVE
 70
     0
  9
$LUNITS
 70
     2
  9
$LUPREC
 70
     4
  9
$SKETCHINC
 40
0.1
  9
$FILLETRAD
 40
0.5
  9
$AUNITS
 70
     0
  9
$AUPREC
 70
     0
  9
$MENU
  1
.
  9
$ELEVATION
 40
0.0
  9
$PELEVATION
 40
0.0
  9
$THICKNESS
 40
0.0
  9
$LIMCHECK
 70
     0
  9
$CHAMFERA
 40
0.5
  9
$CHAMFERB
 40
0.5
  9
$CHAMFERC
 40
1.0
  9
$CHAMFERD
 40
0.0
  9
$SKPOLY
 70
     0
  9
$TDCREATE
 40
2458198.314730926
  9
$TDUCREATE
 40
2458198.273064259
  9
$TDUPDATE
 40
2458198.31473147
  9
$TDUUPDATE
 40
2458198.273064803
  9
$TDINDWG
 40
0.0000000116
  9
$TDUSRTIMER
 40
0.0000000116
  9
$USRTIMER
 70
     1
  9
$ANGBASE
 50
0.0
  9
$ANGDIR
 70
     0
  9
$PDMODE
 70
     0
  9
$PDSIZE
 40
0.0
  9
$PLINEWID
 40
0.0
  9
$SPLFRAME
 70
     0
  9
$SPLINETYPE
 70
     6
  9
$SPLINESEGS
 70
     8
  9
$HANDSEED
  5
297
  9
$SURFTAB1
 70
     6
  9
$SURFTAB2
 70
     6
  9
$SURFTYPE
 70
     6
  9
$SURFU
 70
     6
  9
$SURFV
 70
     6
  9
$UCSBASE
  2

  9
$UCSNAME
  2

  9
$UCSORG
 10
0.0
 20
0.0
 30
0.0
  9
$UCSXDIR
 10
1.0
 20
0.0
 30
0.0
  9
$UCSYDIR
 10
0.0
 20
1.0
 30
0.0
  9
$UCSORTHOREF
  2

  9
$UCSORTHOVIEW
 70
     0
  9
$UCSORGTOP
 10
0.0
 20
0.0
 30
0.0
  9
$UCSORGBOTTOM
 10
0.0
 20
0.0
 30
0.0
  9
$UCSORGLEFT
 10
0.0
 20
0.0
 30
0.0
  9
$UCSORGRIGHT
 10
0.0
 20
0.0
 30
0.0
  9
$UCSORGFRONT
 10
0.0
 20
0.0
 30
0.0
  9
$UCSORGBACK
 10
0.0
 20
0.0
 30
0.0
  9
$PUCSBASE
  2

  9
$PUCSNAME
  2

  9
$PUCSORG
 10
0.0
 20
0.0
 30
0.0
  9
$PUCSXDIR
 10
1.0
 20
0.0
 30
0.0
  9
$PUCSYDIR
 10
0.0
 20
1.0
 30
0.0
  9
$PUCSORTHOREF
  2

  9
$PUCSORTHOVIEW
 70
     0
  9
$PUCSORGTOP
 10
0.0
 20
0.0
 30
0.0
  9
$PUCSORGBOTTOM
 10
0.0
 20
0.0
 30
0.0
  9
$PUCSORGLEFT
 10
0.0
 20
0.0
 30
0.0
  9
$PUCSORGRIGHT
 10
0.0
 20
0.0
 30
0.0
  9
$PUCSORGFRONT
 10
0.0
 20
0.0
 30
0.0
  9
$PUCSORGBACK
 10
0.0
 20
0.0
 30
0.0
  9
$USERI1
 70
     0
  9
$USERI2
 70
     0
  9
$USERI3
 70
     0
  9
$USERI4
 70
     0
  9
$USERI5
 70
     0
  9
$USERR1
 40
18.1
  9
$USERR2
 40
0.0
  9
$USERR3
 40
0.0
  9
$USERR4
 40
0.0
  9
$USERR5
 40
0.0
  9
$WORLDVIEW
 70
     1
  9
$SHADEDGE
 70
     3
  9
$SHADEDIF
 70
    70
  9
$TILEMODE
 70
     1
  9
$MAXACTVP
 70
    64
  9
$PINSBASE
 10
0.0
 20
0.0
 30
0.0
  9
$PLIMCHECK
 70
     0
  9
$PEXTMIN
 10
1.00000000000000E+20
 20
1.00000000000000E+20
 30
1.00000000000000E+20
  9
$PEXTMAX
 10
-1.00000000000000E+20
 20
-1.00000000000000E+20
 30
-1.00000000000000E+20
  9
$PLIMMIN
 10
0.0
 20
0.0
  9
$PLIMMAX
 10
12.0
 20
9.0
  9
$UNITMODE
 70
     0
  9
$VISRETAIN
 70
     1
  9
$PLINEGEN
 70
     0
  9
$PSLTSCALE
 70
     1
  9
$TREEDEPTH
 70
  3020
  9
$CMLSTYLE
  2
Standard
  9
$CMLJUST
 70
     0
  9
$CMLSCALE
 40
1.0
  9
$PROXYGRAPHICS
 70
     1
  9
$MEASUREMENT
 70
     1
  9
$CELWEIGHT
370
    -1
  9
$ENDCAPS
280
     0
  9
$JOINSTYLE
280
     0
  9
$LWDISPLAY
290
     0
  9
$INSUNITS
 70
     4
  9
$HYPERLINKBASE
  1

  9
$STYLESHEET
  1

  9
$XEDIT
290
     1
  9
$CEPSNTYPE
380
     0
  9
$PSTYLEMODE
290
     1
  9
$FINGERPRINTGUID
  2
{2C18AE9E-FF11-46C4-9872-A36EDEC297EE}
  9
$VERSIONGUID
  2
{FAEB1C32-E019-11D5-929B-00C0DF256EC4}
  9
$EXTNAMES
290
     1
  9
$PSVPSCALE
 40
0.0
  9
$OLESTARTUP
290
     0
  9
$SORTENTS
280
   127
  9
$INDEXCTL
280
     0
  9
$HIDETEXT
280
     1
  9
$XCLIPFRAME
290
     0
  9
$HALOGAP
280
     0
  9
$OBSCOLOR
 70
   257
  9
$OBSLTYPE
280
     0
  9
$INTERSECTIONDISPLAY
280
     0
  9
$INTERSECTIONCOLOR
 70
   257
  9
$DIMASSOC
280
     2
  9
$PROJECTNAME
  1

  0
ENDSEC
  0
SECTION
  2
CLASSES
  0
CLASS
  1
ACDBDICTIONARYWDFLT
  2
AcDbDictionaryWithDefault
  3
ObjectDBX Classes
 90
        0
 91
        4
280
     0
281
     0
  0
CLASS
  1
VISUALSTYLE
  2
AcDbVisualStyle
  3
ObjectDBX Classes
 90
     4095
 91
        4
280
     0
281
     0
  0
CLASS
  1
MATERIAL
  2
AcDbMaterial
  3
ObjectDBX Classes
 90
     1153
 91
        4
280
     0
281
     0
  0
ENDSEC
  0
SECTION
  2
TABLES
  0
TABLE
  2
VPORT
  5
8
330
0
100
AcDbSymbolTable
 70
     1
  0
VPORT
  5
29
330
8
100
AcDbSymbolTableRecord
100
AcDbViewportTableRecord
  2
*Active
 70
     0
 10
0.0
 20
0.0
 11
1.0
 21
1.0
 12
58.27499996451029
 22
429.7554916642616
 13
0.0
 23
0.0
 14
0.5
 24
0.5
 15
0.5
 25
0.5
 16
0.0
 26
0.0
 36
1.0
 17
0.0
 27
0.0
 37
0.0
 40
231.0000000000001
 41
1.60267857142857
 42
50.0
 43
0.0
 44
0.0
 50
0.0
 51
0.0
 71
     0
 72
   100
 73
     1
 74
     3
 75
     0
 76
     0
 77
     0
 78
     0
281
     0
 65
     1
110
0.0
120
0.0
130
0.0
111
1.0
121
0.0
131
0.0
112
0.0
122
1.0
132
0.0
 79
     0
146
0.0
  0
ENDTAB
  0
TABLE
  2
LTYPE
  5
5
330
0
100
AcDbSymbolTable
 70
     8
  0
LTYPE
  5
14
330
5
100
AcDbSymbolTableRecord
100
AcDbLinetypeTableRecord
  2
ByBlock
 70
     0
  3

 72
    65
 73
     0
 40
0.0
  0
LTYPE
  5
15
330
5
100
AcDbSymbolTableRecord
100
AcDbLinetypeTableRecord
  2
ByLayer
 70
     0
  3

 72
    65
 73
     0
 40
0.0
  0
LTYPE
  5
16
330
5
100
AcDbSymbolTableRecord
100
AcDbLinetypeTableRecord
  2
Continuous
 70
     0
  3
Solid line
 72
    65
 73
     0
 40
0.0
  0
LTYPE
  5
3F
330
5
100
AcDbSymbolTableRecord
100
AcDbLinetypeTableRecord
  2
DASHED
 70
     0
  3
Dashed
 72
    65
 73
     2
 40
15.0
 49
7.0
 74
     0
 49
-8.0
 74
     0
  0
LTYPE
  5
40
330
5
100
AcDbSymbolTableRecord
100
AcDbLinetypeTableRecord
  2
DOTTED
 70
     0
  3
Dotted
 72
    65
 73
     2
 40
1.0
 49
0.0
 74
     0
 49
-1.0
 74
     0
  0
LTYPE
  5
41
330
5
100
AcDbSymbolTableRecord
100
AcDbLinetypeTableRecord
  2
DOT_CENTER
 70
     0
  3
Dot_Center
 72
    65
 73
     4
 40
14.0
 49
12.0
 74
     0
 49
-1.0
 74
     0
 49
0.0
 74
     0
 49
-1.0
 74
     0
  0
LTYPE
  5
42
330
5
100
AcDbSymbolTableRecord
100
AcDbLinetypeTableRecord
  2
LONG_DASHED
 70
     0
  3
Long_Dashed
 72
    65
 73
     2
 40
15.0
 49
10.0
 74
     0
 49
-5.0
 74
     0
  0
LTYPE
  5
43
330
5
100
AcDbSymbolTableRecord
100
AcDbLinetypeTableRecord
  2
DASH_CENTER
 70
     0
  3
Dash_Center
 72
    65
 73
     4
 40
14.0
 49
11.0
 74
     0
 49
-1.0
 74
     0
 49
1.0
 74
     0
 49
-1.0
 74
     0
  0
LTYPE
  5
44
330
5
100
AcDbSymbolTableRecord
100
AcDbLinetypeTableRecord
  2
PHANTOM
 70
     0
  3
Phantom
 72
    65
 73
     6
 40
13.0
 49
10.0
 74
     0
 49
-1.0
 74
     0
 49
0.0
 74
     0
 49
-1.0
 74
     0
 49
0.0
 74
     0
 49
-1.0
 74
     0
  0
LTYPE
  5
45
330
5
100
AcDbSymbolTableRecord
100
AcDbLinetypeTableRecord
  2
CENTER_DASH_DASH
 70
     0
  3
Center_Dash_Dash
 72
    65
 73
     6
 40
14.0
 49
9.0
 74
     0
 49
-1.0
 74
     0
 49
1.0
 74
     0
 49
-1.0
 74
     0
 49
1.0
 74
     0
 49
-1.0
 74
     0
  0
ENDTAB
  0
TABLE
  2
LAYER
  5
2
330
0
100
AcDbSymbolTable
 70
     2
  0
LAYER
  5
10
330
2
100
AcDbSymbolTableRecord
100
AcDbLayerTableRecord
  2
0
 70
     0
 62
     7
  6
Continuous
370
    -3
390
F
  0
LAYER
  5
46
330
2
100
AcDbSymbolTableRecord
100
AcDbLayerTableRecord
  2
1
 70
     0
 62
     7
  6
Continuous
370
    -3
390
F
  0
ENDTAB
  0
TABLE
  2
STYLE
  5
3
330
0
100
AcDbSymbolTable
 70
     5
  0
STYLE
  5
11
330
3
100
AcDbSymbolTableRecord
100
AcDbTextStyleTableRecord
  2
Standard
 70
     0
 40
0.0
 41
1.0
 50
0.0
 71
     0
 42
0.2
  3
txt
  4

  0
STYLE
  5
17D
330
3
100
AcDbSymbolTableRecord
100
AcDbTextStyleTableRecord
  2
CONVERTER_11
 70
     0
 40
0.0
 41
0.9
 50
0.0
 71
     0
 42
0.2
  3
txt.shx
  4

  0
STYLE
  5
184
330
3
100
AcDbSymbolTableRecord
100
AcDbTextStyleTableRecord
  2
CONVERTER_12
 70
     0
 40
0.0
 41
0.81
 50
0.0
 71
     0
 42
0.2
  3
txt.shx
  4

  0
STYLE
  5
19A
330
3
100
AcDbSymbolTableRecord
100
AcDbTextStyleTableRecord
  2
CONVERTER_13
 70
     0
 40
0.0
 41
0.72
 50
0.0
 71
     0
 42
0.2
  3
txt.shx
  4

  0
STYLE
  5
19D
330
3
100
AcDbSymbolTableRecord
100
AcDbTextStyleTableRecord
  2
CONVERTER_14
 70
     0
 40
0.0
 41
0.855
 50
0.0
 71
     0
 42
0.2
  3
txt.shx
  4

  0
ENDTAB
  0
TABLE
  2
VIEW
  5
6
330
0
100
AcDbSymbolTable
 70
     0
  0
ENDTAB
  0
TABLE
  2
UCS
  5
7
330
0
100
AcDbSymbolTable
 70
     0
  0
ENDTAB
  0
TABLE
  2
APPID
  5
9
330
0
100
AcDbSymbolTable
 70
     1
  0
APPID
  5
12
330
9
100
AcDbSymbolTableRecord
100
AcDbRegAppTableRecord
  2
ACAD
 70
     0
  0
ENDTAB
  0
TABLE
  2
DIMSTYLE
  5
A
330
0
100
AcDbSymbolTable
 70
     4
100
AcDbDimStyleTable
  0
DIMSTYLE
105
27
330
A
100
AcDbSymbolTableRecord
100
AcDbDimStyleTableRecord
  2
Standard
 70
     0
178
     0
340
11
  0
DIMSTYLE
105
208
102
{ACAD_REACTORS
330
209
102
}
330
A
100
AcDbSymbolTableRecord
100
AcDbDimStyleTableRecord
  2
ME10_DIM_10
 70
     0
 41
3.5
 42
0.0
 44
1.5
 73
     0
 74
     0
 77
     1
 78
     8
140
3.5
147
1.5
172
     1
173
     1
174
     1
175
     1
176
     2
177
     2
271
     2
178
     3
271
     2
340
17D
  0
DIMSTYLE
105
262
102
{ACAD_REACTORS
330
263
102
}
330
A
100
AcDbSymbolTableRecord
100
AcDbDimStyleTableRecord
  2
ME10_DIM_11
 70
     0
 41
3.5
 42
0.0
 44
1.5
 73
     0
 74
     0
 77
     1
 78
     8
140
3.5
147
1.5
172
     1
173
     1
174
     1
175
     1
176
     2
177
     2
271
     1
178
     3
271
     1
340
17D
  0
DIMSTYLE
105
26D
102
{ACAD_REACTORS
330
26E
102
}
330
A
100
AcDbSymbolTableRecord
100
AcDbDimStyleTableRecord
  2
ME10_DIM_12
 70
     0
 41
3.5
 42
0.0
 44
1.5
 73
     0
 74
     0
 77
     1
 78
     8
140
3.5
147
1.5
172
     1
173
     1
174
     1
175
     1
176
     2
177
     2
271
     1
178
     3
271
     1
340
17D
  0
ENDTAB
  0
TABLE
  2
BLOCK_RECORD
  5
1
330
0
100
AcDbSymbolTable
 70
    20
  0
BLOCK_RECORD
  5
1F
330
1
100
AcDbSymbolTableRecord
100
AcDbBlockTableRecord
  2
*Model_Space
340
22
  0
BLOCK_RECORD
  5
1B
330
1
100
AcDbSymbolTableRecord
100
AcDbBlockTableRecord
  2
*Paper_Space
340
1E
  0
BLOCK_RECORD
  5
23
330
1
100
AcDbSymbolTableRecord
100
AcDbBlockTableRecord
  2
*Paper_Space0
340
26
  0
BLOCK_RECORD
  5
47
330
1
100
AcDbSymbolTableRecord
100
AcDbBlockTableRecord
  2
_rahmen
340
0
102
{BLKREFS
331
4E
102
}
  0
BLOCK_RECORD
  5
4A
330
1
100
AcDbSymbolTableRecord
100
AcDbBlockTableRecord
  2
_punkt
340
0
102
{BLKREFS
331
4F
102
}
  0
BLOCK_RECORD
  5
4D
330
1
100
AcDbSymbolTableRecord
100
AcDbBlockTableRecord
  2
A4I_CS
340
0
102
{BLKREFS
331
7D
102
}
  0
BLOCK_RECORD
  5
52
330
1
100
AcDbSymbolTableRecord
100
AcDbBlockTableRecord
  2
d_sttb_25_select__1
340
0
102
{BLKREFS
331
56
102
}
  0
BLOCK_RECORD
  5
55
330
1
100
AcDbSymbolTableRecord
100
AcDbBlockTableRecord
  2
AllgSicht1
340
0
102
{BLKREFS
331
7E
102
}
  0
BLOCK_RECORD
  5
59
330
1
100
AcDbSymbolTableRecord
100
AcDbBlockTableRecord
  2
d_sttb_25_select__2
340
0
102
{BLKREFS
331
5D
102
}
  0
BLOCK_RECORD
  5
5C
330
1
100
AcDbSymbolTableRecord
100
AcDbBlockTableRecord
  2
Drfsicht1
340
0
102
{BLKREFS
331
7F
102
}
  0
BLOCK_RECORD
  5
60
330
1
100
AcDbSymbolTableRecord
100
AcDbBlockTableRecord
  2
d_sttb_25_select__3
340
0
102
{BLKREFS
331
64
102
}
  0
BLOCK_RECORD
  5
63
330
1
100
AcDbSymbolTableRecord
100
AcDbBlockTableRecord
  2
Rckans1
340
0
102
{BLKREFS
331
80
102
}
  0
BLOCK_RECORD
  5
67
330
1
100
AcDbSymbolTableRecord
100
AcDbBlockTableRecord
  2
d_sttb_25_select__4
340
0
102
{BLKREFS
331
6B
102
}
  0
BLOCK_RECORD
  5
6A
330
1
100
AcDbSymbolTableRecord
100
AcDbBlockTableRecord
  2
SA_Links1
340
0
102
{BLKREFS
331
81
102
}
  0
BLOCK_RECORD
  5
6E
330
1
100
AcDbSymbolTableRecord
100
AcDbBlockTableRecord
  2
d_sttb_25_select__5
340
0
102
{BLKREFS
331
72
102
}
  0
BLOCK_RECORD
  5
71
330
1
100
AcDbSymbolTableRecord
100
AcDbBlockTableRecord
  2
SA_Rechts1
340
0
102
{BLKREFS
331
82
102
}
  0
BLOCK_RECORD
  5
75
330
1
100
AcDbSymbolTableRecord
100
AcDbBlockTableRecord
  2
d_sttb_25_select__6
340
0
102
{BLKREFS
331
79
102
}
  0
BLOCK_RECORD
  5
78
330
1
100
AcDbSymbolTableRecord
100
AcDbBlockTableRecord
  2
Vordans1
340
0
102
{BLKREFS
331
83
102
}
  0
BLOCK_RECORD
  5
7C
330
1
100
AcDbSymbolTableRecord
100
AcDbBlockTableRecord
  2
1
340
0
102
{BLKREFS
331
86
102
}
  0
BLOCK_RECORD
  5
1FD
330
1
100
AcDbSymbolTableRecord
100
AcDbBlockTableRecord
  2
*D17
340
0
  0
BLOCK_RECORD
  5
259
330
1
100
AcDbSymbolTableRecord
100
AcDbBlockTableRecord
  2
*D18
340
0
  0
BLOCK_RECORD
  5
264
330
1
100
AcDbSymbolTableRecord
100
AcDbBlockTableRecord
  2
*D19
340
0
  0
ENDTAB
  0
ENDSEC
  0
SECTION
  2
BLOCKS
  0
BLOCK
  5
20
330
1F
100
AcDbEntity
  8
0
100
AcDbBlockBegin
  2
*Model_Space
 70
     0
 10
0.0
 20
0.0
 30
0.0
  3
*Model_Space
  1

  0
ENDBLK
  5
21
330
1F
100
AcDbEntity
  8
0
100
AcDbBlockEnd
  0
BLOCK
  5
1C
330
1B
100
AcDbEntity
 67
     1
  8
0
100
AcDbBlockBegin
  2
*Paper_Space
 70
     0
 10
0.0
 20
0.0
 30
0.0
  3
*Paper_Space
  1

  0
ENDBLK
  5
1D
330
1B
100
AcDbEntity
 67
     1
  8
0
100
AcDbBlockEnd
  0
BLOCK
  5
24
330
23
100
AcDbEntity
  8
0
100
AcDbBlockBegin
  2
*Paper_Space0
 70
     0
 10
0.0
 20
0.0
 30
0.0
  3
*Paper_Space0
  1

  0
ENDBLK
  5
25
330
23
100
AcDbEntity
  8
0
100
AcDbBlockEnd
  0
BLOCK
  5
48
330
47
100
AcDbEntity
  8
0
100
AcDbBlockBegin
  2
_rahmen
 70
     0
 10
201.7749999645104
 20
324.7554916642615
 30
0.0
  3
_rahmen
  1

  0
LINE
  5
87
330
47
100
AcDbEntity
  8
1
  6
Continuous
 62
     6
100
AcDbLine
 10
72.23019543776033
 20
355.2554916642616
 30
0.0
 11
201.774999964512
 21
355.2554916642616
 31
0.0
  0
LINE
  5
88
330
47
100
AcDbEntity
  8
1
  6
Continuous
 62
     7
100
AcDbLine
 10
90.43019543776035
 20
334.0054916642616
 30
0.0
 11
108.6301954377603
 21
334.0054916642616
 31
0.0
  0
LINE
  5
89
330
47
100
AcDbEntity
  8
1
  6
Continuous
 62
     6
100
AcDbLine
 10
90.43019543776035
 20
329.7554916642616
 30
0.0
 11
72.23019543776033
 21
329.7554916642615
 31
0.0
  0
LINE
  5
8A
330
47
100
AcDbEntity
  8
1
  6
Continuous
 62
     7
100
AcDbLine
 10
90.43019543776035
 20
334.0054916642616
 30
0.0
 11
90.43019543776035
 21
329.7554916642616
 31
0.0
  0
LINE
  5
8B
330
47
100
AcDbEntity
  8
1
  6
Continuous
 62
     7
100
AcDbLine
 10
108.6301954377603
 20
334.0054916642616
 30
0.0
 11
108.6301954377603
 21
329.7554916642615
 31
0.0
  0
LINE
  5
8C
330
47
100
AcDbEntity
  8
1
  6
Continuous
 62
     7
100
AcDbLine
 10
72.23019543776033
 20
334.0054916642615
 30
0.0
 11
72.23019543776033
 21
329.7554916642615
 31
0.0
  0
LINE
  5
8D
330
47
100
AcDbEntity
  8
1
  6
Continuous
 62
     7
100
AcDbLine
 10
72.23019543776033
 20
334.0054916642615
 30
0.0
 11
90.43019543776035
 21
334.0054916642616
 31
0.0
  0
LINE
  5
8E
330
47
100
AcDbEntity
  8
1
  6
Continuous
 62
     2
100
AcDbLine
 10
81.46685032432293
 20
353.3804916642615
 30
0.0
 11
81.46685032432293
 21
348.3804916642615
 31
0.0
  0
LINE
  5
8F
330
47
100
AcDbEntity
  8
1
  6
Continuous
 62
     2
100
AcDbLine
 10
81.46685032432293
 20
348.3804916642615
 30
0.0
 11
76.46685032432293
 21
349.6304916642615
 31
0.0
  0
LINE
  5
90
330
47
100
AcDbEntity
  8
1
  6
Continuous
 62
     2
100
AcDbLine
 10
76.46685032432293
 20
349.6304916642615
 30
0.0
 11
76.46685032432293
 21
352.1304916642615
 31
0.0
  0
LINE
  5
91
330
47
100
AcDbEntity
  8
1
  6
Continuous
 62
     2
100
AcDbLine
 10
76.46685032432293
 20
352.1304916642615
 30
0.0
 11
81.46685032432293
 21
353.3804916642615
 31
0.0
  0
LINE
  5
92
330
47
100
AcDbEntity
  8
1
  6
Continuous
 62
     6
100
AcDbLine
 10
-50.22500003548788
 20
329.7554916642616
 30
0.0
 11
-85.22500003548777
 21
329.7554916642616
 31
0.0
  0
LINE
  5
93
330
47
100
AcDbEntity
  8
1
  6
Continuous
 62
     6
100
AcDbLine
 10
201.774999964512
 20
346.7554916642616
 30
0.0
 11
201.7749999645116
 21
338.2554916642616
 31
0.0
  0
LINE
  5
94
330
47
100
AcDbEntity
  8
1
  6
Continuous
 62
     6
100
AcDbLine
 10
108.6301954377603
 20
329.7554916642615
 30
0.0
 11
108.2749999645103
 21
329.7554916642616
 31
0.0
  0
LINE
  5
95
330
47
100
AcDbEntity
  8
1
  6
Continuous
 62
     6
100
AcDbLine
 10
-44.02500003548988
 20
329.7554916642615
 30
0.0
 11
-50.22500003548788
 21
329.7554916642616
 31
0.0
  0
LINE
  5
96
330
47
100
AcDbEntity
  8
1
  6
Continuous
 62
     7
100
AcDbLine
 10
108.6301954377603
 20
346.7554916642616
 30
0.0
 11
108.6301954377603
 21
334.0054916642616
 31
0.0
  0
LINE
  5
97
330
47
100
AcDbEntity
  8
1
  6
Continuous
 62
     7
100
AcDbLine
 10
72.23019543776033
 20
346.7554916642616
 30
0.0
 11
72.23019543776033
 21
334.0054916642615
 31
0.0
  0
LINE
  5
98
330
47
100
AcDbEntity
  8
1
  6
Continuous
 62
     6
100
AcDbLine
 10
58.27499996451036
 20
329.7554916642616
 30
0.0
 11
8.27499996451013
 21
329.7554916642616
 31
0.0
  0
LINE
  5
99
330
47
100
AcDbEntity
  8
1
  6
Continuous
 62
     6
100
AcDbLine
 10
-44.02500003548988
 20
329.7554916642615
 30
0.0
 11
-41.72500003548964
 21
329.7554916642616
 31
0.0
  0
LINE
  5
9A
330
47
100
AcDbEntity
  8
1
  6
Continuous
 62
     6
100
AcDbLine
 10
108.6301954377603
 20
329.7554916642615
 30
0.0
 11
158.2749999645103
 21
329.7554916642616
 31
0.0
  0
LINE
  5
9B
330
47
100
AcDbEntity
  8
1
  6
Continuous
 62
     6
100
AcDbLine
 10
201.7749999645104
 20
329.7554916642616
 30
0.0
 11
201.7749999645116
 21
338.2554916642616
 31
0.0
  0
LINE
  5
9C
330
47
100
AcDbEntity
  8
1
  6
Continuous
 62
     2
100
AcDbLine
 10
-90.22500003548873
 20
329.7554916642616
 30
0.0
 11
-90.22500003548873
 21
324.7554916642615
 31
0.0
  0
LINE
  5
9D
330
47
100
AcDbEntity
  8
1
  6
Continuous
 62
     2
100
AcDbLine
 10
-85.22500003548777
 20
329.7554916642616
 30
0.0
 11
-90.22500003548873
 21
329.7554916642616
 31
0.0
  0
LINE
  5
9E
330
47
100
AcDbEntity
  8
1
  6
Continuous
 62
     2
100
AcDbLine
 10
-85.22500003548777
 20
324.7554916642615
 30
0.0
 11
-41.72500003548964
 21
324.7554916642615
 31
0.0
  0
LINE
  5
9F
330
47
100
AcDbEntity
  8
1
  6
Continuous
 62
     2
100
AcDbLine
 10
-85.22500003548777
 20
329.7554916642616
 30
0.0
 11
-85.22500003548777
 21
324.7554916642615
 31
0.0
  0
LINE
  5
A0
330
47
100
AcDbEntity
  8
1
  6
Continuous
 62
     2
100
AcDbLine
 10
158.2749999645103
 20
324.7554916642615
 30
0.0
 11
108.2749999645103
 21
324.7554916642615
 31
0.0
  0
LINE
  5
A1
330
47
100
AcDbEntity
  8
1
  6
Continuous
 62
     2
100
AcDbLine
 10
158.2749999645103
 20
324.7554916642615
 30
0.0
 11
158.2749999645103
 21
329.7554916642616
 31
0.0
  0
LINE
  5
A2
330
47
100
AcDbEntity
  8
1
  6
Continuous
 62
     2
100
AcDbLine
 10
108.2749999645103
 20
324.7554916642615
 30
0.0
 11
108.2749999645103
 21
329.7554916642616
 31
0.0
  0
LINE
  5
A3
330
47
100
AcDbEntity
  8
1
  6
Continuous
 62
     2
100
AcDbLine
 10
58.27499996451036
 20
324.7554916642615
 30
0.0
 11
108.2749999645103
 21
324.7554916642615
 31
0.0
  0
LINE
  5
A4
330
47
100
AcDbEntity
  8
1
  6
Continuous
 62
     2
100
AcDbLine
 10
58.27499996451036
 20
324.7554916642615
 30
0.0
 11
58.27499996451036
 21
329.7554916642616
 31
0.0
  0
LINE
  5
A5
330
47
100
AcDbEntity
  8
1
  6
Continuous
 62
     2
100
AcDbLine
 10
8.27499996451013
 20
324.7554916642615
 30
0.0
 11
58.27499996451036
 21
324.7554916642615
 31
0.0
  0
LINE
  5
A6
330
47
100
AcDbEntity
  8
1
  6
Continuous
 62
     2
100
AcDbLine
 10
8.27499996451013
 20
324.7554916642615
 30
0.0
 11
8.27499996451013
 21
329.7554916642616
 31
0.0
  0
LINE
  5
A7
330
47
100
AcDbEntity
  8
1
  6
Continuous
 62
     2
100
AcDbLine
 10
-41.72500003548964
 20
324.7554916642615
 30
0.0
 11
8.27499996451013
 21
324.7554916642615
 31
0.0
  0
LINE
  5
A8
330
47
100
AcDbEntity
  8
1
  6
Continuous
 62
     2
100
AcDbLine
 10
-41.72500003548964
 20
324.7554916642615
 30
0.0
 11
-41.72500003548964
 21
329.7554916642616
 31
0.0
  0
LINE
  5
A9
330
47
100
AcDbEntity
  8
1
  6
Continuous
 62
     6
100
AcDbLine
 10
-85.22500003548794
 20
379.7554916642617
 30
0.0
 11
-85.22500003548777
 21
329.7554916642616
 31
0.0
  0
LINE
  5
AA
330
47
100
AcDbEntity
  8
1
  6
Continuous
 62
     2
100
AcDbLine
 10
-90.22500003548873
 20
379.7554916642617
 30
0.0
 11
-90.22500003548873
 21
329.7554916642616
 31
0.0
  0
LINE
  5
AB
330
47
100
AcDbEntity
  8
1
  6
Continuous
 62
     2
100
AcDbLine
 10
-90.22500003548873
 20
379.7554916642617
 30
0.0
 11
-85.22500003548794
 21
379.7554916642617
 31
0.0
  0
LINE
  5
AC
330
47
100
AcDbEntity
  8
1
  6
Continuous
 62
     6
100
AcDbLine
 10
-85.22500003548816
 20
429.7554916642615
 30
0.0
 11
-85.22500003548794
 21
379.7554916642617
 31
0.0
  0
LINE
  5
AD
330
47
100
AcDbEntity
  8
1
  6
Continuous
 62
     2
100
AcDbLine
 10
-90.22500003548873
 20
429.7554916642615
 30
0.0
 11
-90.22500003548873
 21
379.7554916642617
 31
0.0
  0
LINE
  5
AE
330
47
100
AcDbEntity
  8
1
  6
Continuous
 62
     2
100
AcDbLine
 10
-90.22500003548873
 20
429.7554916642615
 30
0.0
 11
-85.22500003548816
 21
429.7554916642615
 31
0.0
  0
LINE
  5
AF
330
47
100
AcDbEntity
  8
1
  6
Continuous
 62
     6
100
AcDbLine
 10
-85.22500003548868
 20
479.7554916642616
 30
0.0
 11
-85.22500003548816
 21
429.7554916642615
 31
0.0
  0
LINE
  5
B0
330
47
100
AcDbEntity
  8
1
  6
Continuous
 62
     2
100
AcDbLine
 10
-90.22500003548873
 20
479.7554916642616
 30
0.0
 11
-90.22500003548873
 21
429.7554916642615
 31
0.0
  0
LINE
  5
B1
330
47
100
AcDbEntity
  8
1
  6
Continuous
 62
     2
100
AcDbLine
 10
-90.22500003548873
 20
479.7554916642616
 30
0.0
 11
-85.22500003548868
 21
479.7554916642616
 31
0.0
  0
LINE
  5
B2
330
47
100
AcDbEntity
  8
1
  6
Continuous
 62
     6
100
AcDbLine
 10
-85.22500003548873
 20
514.7554916642616
 30
0.0
 11
-85.22500003548868
 21
479.7554916642616
 31
0.0
  0
LINE
  5
B3
330
47
100
AcDbEntity
  8
1
  6
Continuous
 62
     2
100
AcDbLine
 10
-90.22500003548873
 20
534.7554916642616
 30
0.0
 11
-90.22500003548873
 21
479.7554916642616
 31
0.0
  0
LINE
  5
B4
330
47
100
AcDbEntity
  8
1
  6
Continuous
 62
     2
100
AcDbLine
 10
-90.22500003548873
 20
324.7554916642615
 30
0.0
 11
-85.22500003548777
 21
324.7554916642615
 31
0.0
  0
LINE
  5
B5
330
47
100
AcDbEntity
  8
1
  6
Continuous
 62
     2
100
AcDbLine
 10
58.27499996451036
 20
534.7554916642616
 30
0.0
 11
58.27499996451036
 21
525.5467998195603
 31
0.0
  0
LINE
  5
B6
330
47
100
AcDbEntity
  8
1
  6
Continuous
 62
     2
100
AcDbLine
 10
58.27499996451036
 20
534.7554916642616
 30
0.0
 11
-90.22500003548873
 21
534.7554916642616
 31
0.0
  0
LINE
  5
B7
330
47
100
AcDbEntity
  8
1
  6
Continuous
 62
     2
100
AcDbLine
 10
206.7749999645093
 20
329.7554916642616
 30
0.0
 11
206.7749999645093
 21
379.7554916642617
 31
0.0
  0
LINE
  5
B8
330
47
100
AcDbEntity
  8
1
  6
Continuous
 62
     2
100
AcDbLine
 10
206.7749999645093
 20
479.7554916642616
 30
0.0
 11
206.7749999645093
 21
534.7554916642616
 31
0.0
  0
LINE
  5
B9
330
47
100
AcDbEntity
  8
1
  6
Continuous
 62
     6
100
AcDbLine
 10
201.7749999645095
 20
479.7554916642616
 30
0.0
 11
201.7749999645093
 21
514.7554916642616
 31
0.0
  0
LINE
  5
BA
330
47
100
AcDbEntity
  8
1
  6
Continuous
 62
     2
100
AcDbLine
 10
201.7749999645095
 20
479.7554916642616
 30
0.0
 11
206.7749999645093
 21
479.7554916642616
 31
0.0
  0
LINE
  5
BB
330
47
100
AcDbEntity
  8
1
  6
Continuous
 62
     2
100
AcDbLine
 10
206.7749999645093
 20
429.7554916642615
 30
0.0
 11
206.7749999645093
 21
479.7554916642616
 31
0.0
  0
LINE
  5
BC
330
47
100
AcDbEntity
  8
1
  6
Continuous
 62
     6
100
AcDbLine
 10
201.7749999645108
 20
429.7554916642615
 30
0.0
 11
201.7749999645095
 21
479.7554916642616
 31
0.0
  0
LINE
  5
BD
330
47
100
AcDbEntity
  8
1
  6
Continuous
 62
     2
100
AcDbLine
 10
201.7749999645108
 20
429.7554916642615
 30
0.0
 11
206.7749999645093
 21
429.7554916642615
 31
0.0
  0
LINE
  5
BE
330
47
100
AcDbEntity
  8
1
  6
Continuous
 62
     2
100
AcDbLine
 10
206.7749999645093
 20
379.7554916642617
 30
0.0
 11
206.7749999645093
 21
429.7554916642615
 31
0.0
  0
LINE
  5
BF
330
47
100
AcDbEntity
  8
1
  6
Continuous
 62
     6
100
AcDbLine
 10
201.7749999645112
 20
379.7554916642617
 30
0.0
 11
201.7749999645108
 21
429.7554916642615
 31
0.0
  0
LINE
  5
C0
330
47
100
AcDbEntity
  8
1
  6
Continuous
 62
     2
100
AcDbLine
 10
201.7749999645112
 20
379.7554916642617
 30
0.0
 11
206.7749999645093
 21
379.7554916642617
 31
0.0
  0
LINE
  5
C1
330
47
100
AcDbEntity
  8
1
  6
Continuous
 62
     6
100
AcDbLine
 10
201.7749999645093
 20
514.7554916642616
 30
0.0
 11
-85.22500003548873
 21
514.7554916642616
 31
0.0
  0
LINE
  5
C2
330
47
100
AcDbEntity
  8
1
  6
Continuous
 62
     2
100
AcDbLine
 10
206.7749999645093
 20
534.7554916642616
 30
0.0
 11
58.27499996451036
 21
534.7554916642616
 31
0.0
  0
LINE
  5
C3
330
47
100
AcDbEntity
  8
1
  6
Continuous
 62
     6
100
AcDbLine
 10
201.774999964512
 20
346.7554916642616
 30
0.0
 11
201.7749999645112
 21
379.7554916642617
 31
0.0
  0
LINE
  5
C4
330
47
100
AcDbEntity
  8
1
  6
Continuous
 62
     2
100
AcDbLine
 10
201.7749999645104
 20
324.7554916642615
 30
0.0
 11
158.2749999645103
 21
324.7554916642615
 31
0.0
  0
LINE
  5
C5
330
47
100
AcDbEntity
  8
1
  6
Continuous
 62
     2
100
AcDbLine
 10
206.7749999645093
 20
324.7554916642615
 30
0.0
 11
201.7749999645104
 21
324.7554916642615
 31
0.0
  0
LINE
  5
C6
330
47
100
AcDbEntity
  8
1
  6
Continuous
 62
     2
100
AcDbLine
 10
206.7749999645093
 20
324.7554916642615
 30
0.0
 11
206.7749999645093
 21
329.7554916642616
 31
0.0
  0
LINE
  5
C7
330
47
100
AcDbEntity
  8
1
  6
Continuous
 62
     6
100
AcDbLine
 10
72.23019543776033
 20
346.7554916642616
 30
0.0
 11
108.6301954377603
 21
346.7554916642616
 31
0.0
  0
LINE
  5
C8
330
47
100
AcDbEntity
  8
1
  6
Continuous
 62
     2
100
AcDbLine
 10
201.7749999645104
 20
329.7554916642616
 30
0.0
 11
201.7749999645104
 21
324.7554916642615
 31
0.0
  0
LINE
  5
C9
330
47
100
AcDbEntity
  8
1
  6
Continuous
 62
     2
100
AcDbLine
 10
201.7749999645104
 20
329.7554916642616
 30
0.0
 11
206.7749999645093
 21
329.7554916642616
 31
0.0
  0
LINE
  5
CA
330
47
100
AcDbEntity
  8
1
  6
Continuous
 62
     6
100
AcDbLine
 10
108.2749999645103
 20
329.7554916642616
 30
0.0
 11
90.43019543776035
 21
329.7554916642616
 31
0.0
  0
LINE
  5
CB
330
47
100
AcDbEntity
  8
1
  6
Continuous
 62
     6
100
AcDbLine
 10
158.2749999645103
 20
329.7554916642616
 30
0.0
 11
201.7749999645104
 21
329.7554916642616
 31
0.0
  0
LINE
  5
CC
330
47
100
AcDbEntity
  8
1
  6
Continuous
 62
     6
100
AcDbLine
 10
8.27499996451013
 20
329.7554916642616
 30
0.0
 11
3.23019543776036
 21
329.7554916642616
 31
0.0
  0
LINE
  5
CD
330
47
100
AcDbEntity
  8
1
  6
Continuous
 62
     6
100
AcDbLine
 10
58.27499996451036
 20
329.7554916642616
 30
0.0
 11
72.23019543776033
 21
329.7554916642615
 31
0.0
  0
LINE
  5
CE
102
{ACAD_REACTORS
330
1B9
330
1BA
102
}
330
47
100
AcDbEntity
  8
0
  6
Continuous
 62
     2
100
AcDbLine
 10
79.74482137990714
 20
341.8280064204737
 30
0.0
 11
79.74482137990714
 21
342.4335417089806
 31
0.0
  0
LINE
  5
CF
102
{ACAD_REACTORS
330
1B9
330
1BA
102
}
330
47
100
AcDbEntity
  8
0
  6
Continuous
 62
     2
100
AcDbLine
 10
79.74482137990714
 20
339.0278718138425
 30
0.0
 11
79.74482137990714
 21
339.6097232205375
 31
0.0
  0
LINE
  5
D0
102
{ACAD_REACTORS
330
1BB
330
1BC
102
}
330
47
100
AcDbEntity
  8
0
  6
Continuous
 62
     2
100
AcDbLine
 10
102.3743078153864
 20
339.3175358819655
 30
0.0
 11
102.3743078153864
 21
337.0489916642779
 31
0.0
  0
LINE
  5
D1
102
{ACAD_REACTORS
330
1BB
330
1BC
102
}
330
47
100
AcDbEntity
  8
0
  6
Continuous
 62
     2
100
AcDbLine
 10
100.9932540363988
 20
340.1028011880885
 30
0.0
 11
104.3781995550274
 21
340.102801188089
 31
0.0
  0
LINE
  5
D2
102
{ACAD_REACTORS
330
1BB
330
1BC
102
}
330
47
100
AcDbEntity
  8
0
  6
Continuous
 62
     2
100
AcDbLine
 10
104.3781995550274
 20
339.3175358819655
 30
0.0
 11
104.3781995550274
 21
340.102801188089
 31
0.0
  0
LINE
  5
D3
102
{ACAD_REACTORS
330
1BB
330
1BC
102
}
330
47
100
AcDbEntity
  8
0
  6
Continuous
 62
     2
100
AcDbLine
 10
103.5671005175541
 20
339.3175358819655
 30
0.0
 11
104.3781995550274
 21
339.3175358819655
 31
0.0
  0
LINE
  5
D4
102
{ACAD_REACTORS
330
1BB
330
1BC
102
}
330
47
100
AcDbEntity
  8
0
  6
Continuous
 62
     2
100
AcDbLine
 10
103.5671005175541
 20
337.0489916642779
 30
0.0
 11
103.5671005175541
 21
339.3175358819655
 31
0.0
  0
LINE
  5
D5
102
{ACAD_REACTORS
330
1BB
330
1BC
102
}
330
47
100
AcDbEntity
  8
0
  6
Continuous
 62
     2
100
AcDbLine
 10
102.3743078153864
 20
337.0489916642779
 30
0.0
 11
103.5671005175541
 21
337.0489916642779
 31
0.0
  0
LINE
  5
D6
102
{ACAD_REACTORS
330
1B1
330
1B2
102
}
330
47
100
AcDbEntity
  8
0
  6
Continuous
 62
     2
100
AcDbLine
 10
101.6777168773218
 20
343.4619916642635
 30
0.0
 11
100.2749926595726
 21
343.4619916642635
 31
0.0
  0
LINE
  5
D7
102
{ACAD_REACTORS
330
1B1
330
1B2
102
}
330
47
100
AcDbEntity
  8
0
  6
Continuous
 62
     2
100
AcDbLine
 10
101.6777168773218
 20
343.4619916642635
 30
0.0
 11
102.2788843992136
 21
342.7821683427079
 31
0.0
  0
LINE
  5
D8
102
{ACAD_REACTORS
330
1B1
330
1B2
102
}
330
47
100
AcDbEntity
  8
0
  6
Continuous
 62
     2
100
AcDbLine
 10
102.2788843992136
 20
342.7821683427079
 30
0.0
 11
102.8800519211064
 21
343.4619916642635
 31
0.0
  0
LINE
  5
D9
102
{ACAD_REACTORS
330
1B1
330
1B2
102
}
330
47
100
AcDbEntity
  8
0
  6
Continuous
 62
     2
100
AcDbLine
 10
102.9802465080871
 20
341.9890411342273
 30
0.0
 11
104.2827761388537
 21
343.4619916642635
 31
0.0
  0
LINE
  5
DA
102
{ACAD_REACTORS
330
1B1
330
1B2
102
}
330
47
100
AcDbEntity
  8
0
  6
Continuous
 62
     2
100
AcDbLine
 10
102.9802465080871
 20
341.9890411342273
 30
0.0
 11
104.3781995550274
 21
340.4081821404523
 31
0.0
  0
LINE
  5
DB
102
{ACAD_REACTORS
330
1B1
330
1B2
102
}
330
47
100
AcDbEntity
  8
0
  6
Continuous
 62
     2
100
AcDbLine
 10
102.9754753372791
 20
340.4081821404523
 30
0.0
 11
104.3781995550274
 21
340.4081821404523
 31
0.0
  0
LINE
  5
DC
102
{ACAD_REACTORS
330
1B1
330
1B2
102
}
330
47
100
AcDbEntity
  8
0
  6
Continuous
 62
     2
100
AcDbLine
 10
102.2788843992136
 20
341.1959139257459
 30
0.0
 11
102.9754753372791
 21
340.4081821404523
 31
0.0
  0
LINE
  5
DD
102
{ACAD_REACTORS
330
1AF
330
1B0
102
}
330
47
100
AcDbEntity
  8
0
  6
Continuous
 62
     2
100
AcDbLine
 10
98.81978556292995
 20
343.4619916642635
 30
0.0
 11
100.0602899731829
 21
343.4619916642635
 31
0.0
  0
LINE
  5
DE
102
{ACAD_REACTORS
330
1AF
330
1B0
102
}
330
47
100
AcDbEntity
  8
0
  6
Continuous
 62
     2
100
AcDbLine
 10
100.0602899731829
 20
343.4619916642635
 30
0.0
 11
100.0602899731829
 21
340.4081821404523
 31
0.0
  0
LINE
  5
DF
102
{ACAD_REACTORS
330
1AF
330
1B0
102
}
330
47
100
AcDbEntity
  8
0
  6
Continuous
 62
     2
100
AcDbLine
 10
98.81978556292995
 20
340.4081821404523
 30
0.0
 11
98.81978556292995
 21
343.4619916642635
 31
0.0
  0
LINE
  5
E0
102
{ACAD_REACTORS
330
1AD
330
1AE
102
}
330
47
100
AcDbEntity
  8
0
  6
Continuous
 62
     2
100
AcDbLine
 10
97.35147548039234
 20
338.2705154738025
 30
0.0
 11
97.65164071758474
 21
339.0383304397891
 31
0.0
  0
LINE
  5
E1
102
{ACAD_REACTORS
330
1AD
330
1AE
102
}
330
47
100
AcDbEntity
  8
0
  6
Continuous
 62
     2
100
AcDbLine
 10
96.87393987577153
 20
337.0489916642779
 30
0.0
 11
97.08541992924734
 21
337.5899522084958
 31
0.0
  0
LINE
  5
E2
102
{ACAD_REACTORS
330
1AD
330
1AE
102
}
330
47
100
AcDbEntity
  8
0
  6
Continuous
 62
     2
100
AcDbLine
 10
97.03138851245785
 20
340.102801188089
 30
0.0
 11
95.63343546551855
 21
337.0489916642779
 31
0.0
  0
LINE
  5
E3
102
{ACAD_REACTORS
330
1AD
330
1AE
102
}
330
47
100
AcDbEntity
  8
0
  6
Continuous
 62
     2
100
AcDbLine
 10
99.66984596965085
 20
337.0489916642779
 30
0.0
 11
98.42934155939693
 21
337.0489916642779
 31
0.0
  0
LINE
  5
E4
102
{ACAD_REACTORS
330
1AD
330
1AE
102
}
330
47
100
AcDbEntity
  8
0
  6
Continuous
 62
     2
100
AcDbLine
 10
97.08541992924734
 20
337.5899522084958
 30
0.0
 11
98.21786150592115
 21
337.5899522084958
 31
0.0
  0
LINE
  5
E5
102
{ACAD_REACTORS
330
1AB
330
1AC
102
}
330
47
100
AcDbEntity
  8
0
  6
Continuous
 62
     2
100
AcDbLine
 10
93.47592332633633
 20
339.3175358819655
 30
0.0
 11
94.28702236381093
 21
339.3175358819655
 31
0.0
  0
LINE
  5
E6
102
{ACAD_REACTORS
330
1AB
330
1AC
102
}
330
47
100
AcDbEntity
  8
0
  6
Continuous
 62
     2
100
AcDbLine
 10
96.29091410344995
 20
340.102801188089
 30
0.0
 11
93.47592332633633
 21
340.102801188089
 31
0.0
  0
LINE
  5
E7
102
{ACAD_REACTORS
330
1AB
330
1AC
102
}
330
47
100
AcDbEntity
  8
0
  6
Continuous
 62
     2
100
AcDbLine
 10
96.29091410344995
 20
339.3175358819655
 30
0.0
 11
96.29091410344995
 21
340.102801188089
 31
0.0
  0
LINE
  5
E8
102
{ACAD_REACTORS
330
1AB
330
1AC
102
}
330
47
100
AcDbEntity
  8
0
  6
Continuous
 62
     2
100
AcDbLine
 10
95.47981506597745
 20
339.3175358819655
 30
0.0
 11
96.29091410344995
 21
339.3175358819655
 31
0.0
  0
LINE
  5
E9
102
{ACAD_REACTORS
330
1AB
330
1AC
102
}
330
47
100
AcDbEntity
  8
0
  6
Continuous
 62
     2
100
AcDbLine
 10
95.47981506597745
 20
337.0489916642779
 30
0.0
 11
95.47981506597745
 21
339.3175358819655
 31
0.0
  0
LINE
  5
EA
102
{ACAD_REACTORS
330
1A9
330
1AA
102
}
330
47
100
AcDbEntity
  8
0
  6
Continuous
 62
     2
100
AcDbLine
 10
96.14792991007545
 20
340.4081821404523
 30
0.0
 11
96.14792991007545
 21
341.7169576506569
 31
0.0
  0
LINE
  5
EB
102
{ACAD_REACTORS
330
1A9
330
1AA
102
}
330
47
100
AcDbEntity
  8
0
  6
Continuous
 62
     2
100
AcDbLine
 10
94.95513720790893
 20
343.4619916642635
 30
0.0
 11
94.95513720790893
 21
340.4081821404523
 31
0.0
  0
LINE
  5
EC
102
{ACAD_REACTORS
330
1A9
330
1AA
102
}
330
47
100
AcDbEntity
  8
0
  6
Continuous
 62
     2
100
AcDbLine
 10
96.14792991007545
 20
343.4619916642635
 30
0.0
 11
94.95513720790893
 21
343.4619916642635
 31
0.0
  0
LINE
  5
ED
102
{ACAD_REACTORS
330
1A9
330
1AA
102
}
330
47
100
AcDbEntity
  8
0
  6
Continuous
 62
     2
100
AcDbLine
 10
97.38843432032945
 20
343.4619916642635
 30
0.0
 11
97.38843432032945
 21
342.1532161540582
 31
0.0
  0
LINE
  5
EE
102
{ACAD_REACTORS
330
1A7
330
1A8
102
}
330
47
100
AcDbEntity
  8
0
  6
Continuous
 62
     2
100
AcDbLine
 10
89.70669838748924
 20
340.102801188089
 30
0.0
 11
89.70669838748924
 21
337.0489916642779
 31
0.0
  0
LINE
  5
EF
102
{ACAD_REACTORS
330
1A7
330
1A8
102
}
330
47
100
AcDbEntity
  8
0
  6
Continuous
 62
     2
100
AcDbLine
 10
90.89949108965683
 20
340.102801188089
 30
0.0
 11
89.70669838748924
 21
340.102801188089
 31
0.0
  0
LINE
  5
F0
102
{ACAD_REACTORS
330
1A7
330
1A8
102
}
330
47
100
AcDbEntity
  8
0
  6
Continuous
 62
     2
100
AcDbLine
 10
92.13999549990973
 20
337.0489916642779
 30
0.0
 11
93.33278820207613
 21
337.0489916642779
 31
0.0
  0
LINE
  5
F1
102
{ACAD_REACTORS
330
1A7
330
1A8
102
}
330
47
100
AcDbEntity
  8
0
  6
Continuous
 62
     2
100
AcDbLine
 10
89.70669838748924
 20
337.0489916642779
 30
0.0
 11
90.89949108965683
 21
337.0489916642779
 31
0.0
  0
LINE
  5
F2
102
{ACAD_REACTORS
330
1B7
330
1B8
102
}
330
47
100
AcDbEntity
  8
0
  6
Continuous
 62
     2
100
AcDbLine
 10
93.38065084104835
 20
342.2840937050787
 30
0.0
 11
93.38065084104835
 21
342.7639780588204
 31
0.0
  0
LINE
  5
F3
102
{ACAD_REACTORS
330
1B7
330
1B8
102
}
330
47
100
AcDbEntity
  8
0
  6
Continuous
 62
     2
100
AcDbLine
 10
94.71657866747603
 20
342.2840937050787
 30
0.0
 11
93.38065084104835
 21
342.2840937050787
 31
0.0
  0
LINE
  5
F4
102
{ACAD_REACTORS
330
1B7
330
1B8
102
}
330
47
100
AcDbEntity
  8
0
  6
Continuous
 62
     2
100
AcDbLine
 10
94.71657866747603
 20
341.5860800996364
 30
0.0
 11
94.71657866747603
 21
342.2840937050787
 31
0.0
  0
LINE
  5
F5
102
{ACAD_REACTORS
330
1B7
330
1B8
102
}
330
47
100
AcDbEntity
  8
0
  6
Continuous
 62
     2
100
AcDbLine
 10
93.38065084104835
 20
341.5860800996364
 30
0.0
 11
94.71657866747603
 21
341.5860800996364
 31
0.0
  0
LINE
  5
F6
102
{ACAD_REACTORS
330
1A5
330
1A6
102
}
330
47
100
AcDbEntity
  8
0
  6
Continuous
 62
     2
100
AcDbLine
 10
89.89769615072143
 20
343.4619916642635
 30
0.0
 11
89.89769615072143
 21
340.4081821404523
 31
0.0
  0
LINE
  5
F7
102
{ACAD_REACTORS
330
1A5
330
1A6
102
}
330
47
100
AcDbEntity
  8
0
  6
Continuous
 62
     2
100
AcDbLine
 10
89.89769615072143
 20
340.4081821404523
 30
0.0
 11
88.70490344855503
 21
340.4081821404523
 31
0.0
  0
LINE
  5
F8
102
{ACAD_REACTORS
330
1A5
330
1A6
102
}
330
47
100
AcDbEntity
  8
0
  6
Continuous
 62
     2
100
AcDbLine
 10
88.70490344855503
 20
340.4081821404523
 30
0.0
 11
88.70490344855503
 21
341.542454249296
 31
0.0
  0
LINE
  5
F9
102
{ACAD_REACTORS
330
1A5
330
1A6
102
}
330
47
100
AcDbEntity
  8
0
  6
Continuous
 62
     2
100
AcDbLine
 10
87.65524587064755
 20
340.4081821404523
 30
0.0
 11
86.46245316848095
 21
340.4081821404523
 31
0.0
  0
LINE
  5
FA
102
{ACAD_REACTORS
330
1A5
330
1A6
102
}
330
47
100
AcDbEntity
  8
0
  6
Continuous
 62
     2
100
AcDbLine
 10
86.46245316848095
 20
343.4619916642635
 30
0.0
 11
87.65524587064755
 21
343.4619916642635
 31
0.0
  0
LINE
  5
FB
102
{ACAD_REACTORS
330
1A5
330
1A6
102
}
330
47
100
AcDbEntity
  8
0
  6
Continuous
 62
     2
100
AcDbLine
 10
87.65524587064755
 20
343.4619916642635
 30
0.0
 11
87.65524587064755
 21
342.3931583309288
 31
0.0
  0
LINE
  5
FC
102
{ACAD_REACTORS
330
1A5
330
1A6
102
}
330
47
100
AcDbEntity
  8
0
  6
Continuous
 62
     2
100
AcDbLine
 10
87.65524587064755
 20
342.3931583309288
 30
0.0
 11
88.70490344855503
 21
342.3931583309288
 31
0.0
  0
LINE
  5
FD
102
{ACAD_REACTORS
330
1B3
330
1B4
102
}
330
47
100
AcDbEntity
  8
0
  6
Continuous
 62
     2
100
AcDbLine
 10
84.50627313692735
 20
342.7988858188234
 30
0.0
 11
84.82356819846925
 21
342.7988858188234
 31
0.0
  0
LINE
  5
FE
102
{ACAD_REACTORS
330
1B3
330
1B4
102
}
330
47
100
AcDbEntity
  8
0
  6
Continuous
 62
     2
100
AcDbLine
 10
84.50627313692735
 20
342.0931581694811
 30
0.0
 11
84.82356819846925
 21
342.0931581694811
 31
0.0
  0
LINE
  5
FF
102
{ACAD_REACTORS
330
1B3
330
1B4
102
}
330
47
100
AcDbEntity
  8
0
  6
Continuous
 62
     2
100
AcDbLine
 10
83.26576872667323
 20
343.4619916642635
 30
0.0
 11
83.26576872667323
 21
340.4081821404523
 31
0.0
  0
LINE
  5
100
102
{ACAD_REACTORS
330
1B3
330
1B4
102
}
330
47
100
AcDbEntity
  8
0
  6
Continuous
 62
     2
100
AcDbLine
 10
83.26576872667323
 20
343.4619916642635
 30
0.0
 11
85.26504072470763
 21
343.4619916642635
 31
0.0
  0
LINE
  5
101
102
{ACAD_REACTORS
330
1B3
330
1B4
102
}
330
47
100
AcDbEntity
  8
0
  6
Continuous
 62
     2
100
AcDbLine
 10
84.50627313692735
 20
341.351260381596
 30
0.0
 11
85.26504072470763
 21
341.351260381596
 31
0.0
  0
LINE
  5
102
102
{ACAD_REACTORS
330
1B9
330
1BA
102
}
330
47
100
AcDbEntity
  8
0
  6
Continuous
 62
     2
100
AcDbLine
 10
77.16927269337654
 20
342.4337191856287
 30
0.0
 11
77.16927269337654
 21
338.0772641429115
 31
0.0
  0
LINE
  5
103
102
{ACAD_REACTORS
330
1B9
330
1BA
102
}
330
47
100
AcDbEntity
  8
0
  6
Continuous
 62
     2
100
AcDbLine
 10
77.48498961645222
 20
342.7494361087048
 30
0.0
 11
78.96082287746185
 21
342.7494361087048
 31
0.0
  0
LINE
  5
104
102
{ACAD_REACTORS
330
1B9
330
1BA
102
}
330
47
100
AcDbEntity
  8
0
  6
Continuous
 62
     2
100
AcDbLine
 10
79.27653980053844
 20
341.8296945665682
 30
0.0
 11
79.27653980053844
 21
342.4337191856287
 31
0.0
  0
LINE
  5
105
102
{ACAD_REACTORS
330
1B9
330
1BA
102
}
330
47
100
AcDbEntity
  8
0
  6
Continuous
 62
     2
100
AcDbLine
 10
79.27653980053844
 20
338.0772641429115
 30
0.0
 11
79.27653980053844
 21
339.6080350744431
 31
0.0
  0
LINE
  5
106
102
{ACAD_REACTORS
330
1B9
330
1BA
102
}
330
47
100
AcDbEntity
  8
0
  6
Continuous
 62
     2
100
AcDbLine
 10
82.36440703042254
 20
337.0489916642779
 30
0.0
 11
76.89109493970574
 21
337.0489916642779
 31
0.0
  0
LINE
  5
107
102
{ACAD_REACTORS
330
1B9
330
1BA
102
}
330
47
100
AcDbEntity
  8
0
  6
Continuous
 62
     2
100
AcDbLine
 10
82.78865164580642
 20
343.0377470488614
 30
0.0
 11
82.78865164580642
 21
337.4732362796613
 31
0.0
  0
LINE
  5
108
102
{ACAD_REACTORS
330
1B9
330
1BA
102
}
330
47
100
AcDbEntity
  8
0
  6
Continuous
 62
     2
100
AcDbLine
 10
76.89109493970574
 20
343.4619916642453
 30
0.0
 11
82.36440703042254
 21
343.4619916642453
 31
0.0
  0
LINE
  5
109
102
{ACAD_REACTORS
330
1B9
330
1BA
102
}
330
47
100
AcDbEntity
  8
0
  6
Continuous
 62
     2
100
AcDbLine
 10
76.46685032432293
 20
343.0377470488614
 30
0.0
 11
76.46685032432293
 21
337.4732362796613
 31
0.0
  0
LINE
  5
10A
102
{ACAD_REACTORS
330
1B9
330
1BA
102
}
330
47
100
AcDbEntity
  8
0
  6
Continuous
 62
     2
100
AcDbLine
 10
78.96082287746185
 20
337.7615472198348
 30
0.0
 11
77.48498961645222
 21
337.7615472198348
 31
0.0
  0
LINE
  5
10B
102
{ACAD_REACTORS
330
1B3
330
1B4
102
}
330
47
100
AcDbEntity
  8
0
  6
Continuous
 62
     2
100
AcDbLine
 10
84.50627313692735
 20
340.4081821404523
 30
0.0
 11
84.50627313692735
 21
341.351260381596
 31
0.0
  0
LINE
  5
10C
102
{ACAD_REACTORS
330
1B3
330
1B4
102
}
330
47
100
AcDbEntity
  8
0
  6
Continuous
 62
     2
100
AcDbLine
 10
83.26576872667323
 20
340.4081821404523
 30
0.0
 11
84.50627313692735
 21
340.4081821404523
 31
0.0
  0
LINE
  5
10D
102
{ACAD_REACTORS
330
1B3
330
1B4
102
}
330
47
100
AcDbEntity
  8
0
  6
Continuous
 62
     2
100
AcDbLine
 10
84.50627313692735
 20
342.0931581694811
 30
0.0
 11
84.50627313692735
 21
342.7988858188234
 31
0.0
  0
LINE
  5
10E
102
{ACAD_REACTORS
330
1A5
330
1A6
102
}
330
47
100
AcDbEntity
  8
0
  6
Continuous
 62
     2
100
AcDbLine
 10
86.46245316848095
 20
343.4619916642635
 30
0.0
 11
86.46245316848095
 21
340.4081821404523
 31
0.0
  0
LINE
  5
10F
102
{ACAD_REACTORS
330
1A5
330
1A6
102
}
330
47
100
AcDbEntity
  8
0
  6
Continuous
 62
     2
100
AcDbLine
 10
87.65524587064755
 20
341.542454249296
 30
0.0
 11
87.65524587064755
 21
340.4081821404523
 31
0.0
  0
LINE
  5
110
102
{ACAD_REACTORS
330
1A5
330
1A6
102
}
330
47
100
AcDbEntity
  8
0
  6
Continuous
 62
     2
100
AcDbLine
 10
88.70490344855503
 20
341.542454249296
 30
0.0
 11
87.65524587064755
 21
341.542454249296
 31
0.0
  0
LINE
  5
111
102
{ACAD_REACTORS
330
1A5
330
1A6
102
}
330
47
100
AcDbEntity
  8
0
  6
Continuous
 62
     2
100
AcDbLine
 10
88.70490344855503
 20
343.4619916642635
 30
0.0
 11
89.89769615072143
 21
343.4619916642635
 31
0.0
  0
LINE
  5
112
102
{ACAD_REACTORS
330
1A5
330
1A6
102
}
330
47
100
AcDbEntity
  8
0
  6
Continuous
 62
     2
100
AcDbLine
 10
88.70490344855503
 20
342.3931583309288
 30
0.0
 11
88.70490344855503
 21
343.4619916642635
 31
0.0
  0
LINE
  5
113
102
{ACAD_REACTORS
330
1B7
330
1B8
102
}
330
47
100
AcDbEntity
  8
0
  6
Continuous
 62
     2
100
AcDbLine
 10
94.71657866747603
 20
342.7639780588204
 30
0.0
 11
94.71657866747603
 21
343.4619916642635
 31
0.0
  0
LINE
  5
114
102
{ACAD_REACTORS
330
1B7
330
1B8
102
}
330
47
100
AcDbEntity
  8
0
  6
Continuous
 62
     2
100
AcDbLine
 10
91.56625894369503
 20
343.4619916642635
 30
0.0
 11
94.71657866747603
 21
343.4619916642635
 31
0.0
  0
LINE
  5
115
102
{ACAD_REACTORS
330
1B7
330
1B8
102
}
330
47
100
AcDbEntity
  8
0
  6
Continuous
 62
     2
100
AcDbLine
 10
91.56625894369503
 20
340.4081821404523
 30
0.0
 11
94.71657866747603
 21
340.4081821404523
 31
0.0
  0
LINE
  5
116
102
{ACAD_REACTORS
330
1B7
330
1B8
102
}
330
47
100
AcDbEntity
  8
0
  6
Continuous
 62
     2
100
AcDbLine
 10
94.71657866747603
 20
340.4081821404523
 30
0.0
 11
94.71657866747603
 21
341.1061957458948
 31
0.0
  0
LINE
  5
117
102
{ACAD_REACTORS
330
1B7
330
1B8
102
}
330
47
100
AcDbEntity
  8
0
  6
Continuous
 62
     2
100
AcDbLine
 10
94.71657866747603
 20
341.1061957458948
 30
0.0
 11
93.38065084104835
 21
341.1061957458948
 31
0.0
  0
LINE
  5
118
102
{ACAD_REACTORS
330
1B7
330
1B8
102
}
330
47
100
AcDbEntity
  8
0
  6
Continuous
 62
     2
100
AcDbLine
 10
93.38065084104835
 20
341.1061957458948
 30
0.0
 11
93.38065084104835
 21
341.5860800996364
 31
0.0
  0
LINE
  5
119
102
{ACAD_REACTORS
330
1B7
330
1B8
102
}
330
47
100
AcDbEntity
  8
0
  6
Continuous
 62
     2
100
AcDbLine
 10
93.38065084104835
 20
342.7639780588204
 30
0.0
 11
94.71657866747603
 21
342.7639780588204
 31
0.0
  0
LINE
  5
11A
102
{ACAD_REACTORS
330
1A7
330
1A8
102
}
330
47
100
AcDbEntity
  8
0
  6
Continuous
 62
     2
100
AcDbLine
 10
90.89949108965683
 20
337.0489916642779
 30
0.0
 11
90.89949108965683
 21
338.3577671744826
 31
0.0
  0
LINE
  5
11B
102
{ACAD_REACTORS
330
1A7
330
1A8
102
}
330
47
100
AcDbEntity
  8
0
  6
Continuous
 62
     2
100
AcDbLine
 10
90.89949108965683
 20
338.3577671744826
 30
0.0
 11
92.13999549990973
 21
337.0489916642779
 31
0.0
  0
LINE
  5
11C
102
{ACAD_REACTORS
330
1A7
330
1A8
102
}
330
47
100
AcDbEntity
  8
0
  6
Continuous
 62
     2
100
AcDbLine
 10
93.33278820207613
 20
337.0489916642779
 30
0.0
 11
93.33278820207613
 21
340.102801188089
 31
0.0
  0
LINE
  5
11D
102
{ACAD_REACTORS
330
1A7
330
1A8
102
}
330
47
100
AcDbEntity
  8
0
  6
Continuous
 62
     2
100
AcDbLine
 10
93.33278820207613
 20
340.102801188089
 30
0.0
 11
92.13999549990973
 21
340.102801188089
 31
0.0
  0
LINE
  5
11E
102
{ACAD_REACTORS
330
1A7
330
1A8
102
}
330
47
100
AcDbEntity
  8
0
  6
Continuous
 62
     2
100
AcDbLine
 10
92.13999549990973
 20
340.102801188089
 30
0.0
 11
92.13999549990973
 21
338.794025677884
 31
0.0
  0
LINE
  5
11F
102
{ACAD_REACTORS
330
1A7
330
1A8
102
}
330
47
100
AcDbEntity
  8
0
  6
Continuous
 62
     2
100
AcDbLine
 10
92.13999549990973
 20
338.794025677884
 30
0.0
 11
90.89949108965683
 21
340.102801188089
 31
0.0
  0
LINE
  5
120
102
{ACAD_REACTORS
330
1A9
330
1AA
102
}
330
47
100
AcDbEntity
  8
0
  6
Continuous
 62
     2
100
AcDbLine
 10
96.14792991007545
 20
341.7169576506569
 30
0.0
 11
97.38843432032945
 21
340.4081821404523
 31
0.0
  0
LINE
  5
121
102
{ACAD_REACTORS
330
1A9
330
1AA
102
}
330
47
100
AcDbEntity
  8
0
  6
Continuous
 62
     2
100
AcDbLine
 10
97.38843432032945
 20
340.4081821404523
 30
0.0
 11
98.58122702249605
 21
340.4081821404523
 31
0.0
  0
LINE
  5
122
102
{ACAD_REACTORS
330
1A9
330
1AA
102
}
330
47
100
AcDbEntity
  8
0
  6
Continuous
 62
     2
100
AcDbLine
 10
98.58122702249605
 20
340.4081821404523
 30
0.0
 11
98.58122702249605
 21
343.4619916642635
 31
0.0
  0
LINE
  5
123
102
{ACAD_REACTORS
330
1A9
330
1AA
102
}
330
47
100
AcDbEntity
  8
0
  6
Continuous
 62
     2
100
AcDbLine
 10
98.58122702249605
 20
343.4619916642635
 30
0.0
 11
97.38843432032945
 21
343.4619916642635
 31
0.0
  0
LINE
  5
124
102
{ACAD_REACTORS
330
1A9
330
1AA
102
}
330
47
100
AcDbEntity
  8
0
  6
Continuous
 62
     2
100
AcDbLine
 10
97.38843432032945
 20
342.1532161540582
 30
0.0
 11
96.14792991007545
 21
343.4619916642635
 31
0.0
  0
LINE
  5
125
102
{ACAD_REACTORS
330
1A9
330
1AA
102
}
330
47
100
AcDbEntity
  8
0
  6
Continuous
 62
     2
100
AcDbLine
 10
94.95513720790893
 20
340.4081821404523
 30
0.0
 11
96.14792991007545
 21
340.4081821404523
 31
0.0
  0
LINE
  5
126
102
{ACAD_REACTORS
330
1AB
330
1AC
102
}
330
47
100
AcDbEntity
  8
0
  6
Continuous
 62
     2
100
AcDbLine
 10
93.47592332633633
 20
340.102801188089
 30
0.0
 11
93.47592332633633
 21
339.3175358819655
 31
0.0
  0
LINE
  5
127
102
{ACAD_REACTORS
330
1AB
330
1AC
102
}
330
47
100
AcDbEntity
  8
0
  6
Continuous
 62
     2
100
AcDbLine
 10
94.28702236381093
 20
339.3175358819655
 30
0.0
 11
94.28702236381093
 21
337.0489916642779
 31
0.0
  0
LINE
  5
128
102
{ACAD_REACTORS
330
1AB
330
1AC
102
}
330
47
100
AcDbEntity
  8
0
  6
Continuous
 62
     2
100
AcDbLine
 10
94.28702236381093
 20
337.0489916642779
 30
0.0
 11
95.47981506597745
 21
337.0489916642779
 31
0.0
  0
LINE
  5
129
102
{ACAD_REACTORS
330
1AD
330
1AE
102
}
330
47
100
AcDbEntity
  8
0
  6
Continuous
 62
     2
100
AcDbLine
 10
98.42934155939693
 20
337.0489916642779
 30
0.0
 11
98.21786150592115
 21
337.5899522084958
 31
0.0
  0
LINE
  5
12A
102
{ACAD_REACTORS
330
1AD
330
1AE
102
}
330
47
100
AcDbEntity
  8
0
  6
Continuous
 62
     2
100
AcDbLine
 10
98.27189292271055
 20
340.102801188089
 30
0.0
 11
99.66984596965085
 21
337.0489916642779
 31
0.0
  0
LINE
  5
12B
102
{ACAD_REACTORS
330
1AD
330
1AE
102
}
330
47
100
AcDbEntity
  8
0
  6
Continuous
 62
     2
100
AcDbLine
 10
97.03138851245785
 20
340.102801188089
 30
0.0
 11
98.27189292271055
 21
340.102801188089
 31
0.0
  0
LINE
  5
12C
102
{ACAD_REACTORS
330
1AD
330
1AE
102
}
330
47
100
AcDbEntity
  8
0
  6
Continuous
 62
     2
100
AcDbLine
 10
95.63343546551855
 20
337.0489916642779
 30
0.0
 11
96.87393987577153
 21
337.0489916642779
 31
0.0
  0
LINE
  5
12D
102
{ACAD_REACTORS
330
1AD
330
1AE
102
}
330
47
100
AcDbEntity
  8
0
  6
Continuous
 62
     2
100
AcDbLine
 10
97.35147548039234
 20
338.2705154738025
 30
0.0
 11
97.95180595477484
 21
338.2705154738025
 31
0.0
  0
LINE
  5
12E
102
{ACAD_REACTORS
330
1AD
330
1AE
102
}
330
47
100
AcDbEntity
  8
0
  6
Continuous
 62
     2
100
AcDbLine
 10
97.95180595477484
 20
338.2705154738025
 30
0.0
 11
97.65164071758474
 21
339.0383304397891
 31
0.0
  0
LINE
  5
12F
102
{ACAD_REACTORS
330
1AF
330
1B0
102
}
330
47
100
AcDbEntity
  8
0
  6
Continuous
 62
     2
100
AcDbLine
 10
100.0602899731829
 20
340.4081821404523
 30
0.0
 11
98.81978556292995
 21
340.4081821404523
 31
0.0
  0
LINE
  5
130
102
{ACAD_REACTORS
330
1B1
330
1B2
102
}
330
47
100
AcDbEntity
  8
0
  6
Continuous
 62
     2
100
AcDbLine
 10
101.5822934611479
 20
340.4081821404523
 30
0.0
 11
100.1795692433997
 21
340.4081821404523
 31
0.0
  0
LINE
  5
131
102
{ACAD_REACTORS
330
1B1
330
1B2
102
}
330
47
100
AcDbEntity
  8
0
  6
Continuous
 62
     2
100
AcDbLine
 10
101.5822934611479
 20
340.4081821404523
 30
0.0
 11
102.2788843992136
 21
341.1959139257459
 31
0.0
  0
LINE
  5
132
102
{ACAD_REACTORS
330
1B1
330
1B2
102
}
330
47
100
AcDbEntity
  8
0
  6
Continuous
 62
     2
100
AcDbLine
 10
102.8800519211064
 20
343.4619916642635
 30
0.0
 11
104.2827761388537
 21
343.4619916642635
 31
0.0
  0
LINE
  5
133
102
{ACAD_REACTORS
330
1B1
330
1B2
102
}
330
47
100
AcDbEntity
  8
0
  6
Continuous
 62
     2
100
AcDbLine
 10
100.2749926595726
 20
343.4619916642635
 30
0.0
 11
101.57752229034
 21
341.9890411342273
 31
0.0
  0
LINE
  5
134
102
{ACAD_REACTORS
330
1B1
330
1B2
102
}
330
47
100
AcDbEntity
  8
0
  6
Continuous
 62
     2
100
AcDbLine
 10
100.1795692433997
 20
340.4081821404523
 30
0.0
 11
101.57752229034
 21
341.9890411342273
 31
0.0
  0
LINE
  5
135
102
{ACAD_REACTORS
330
1BB
330
1BC
102
}
330
47
100
AcDbEntity
  8
0
  6
Continuous
 62
     2
100
AcDbLine
 10
102.0403258587797
 20
338.0960120724416
 30
0.0
 11
102.0403258587797
 21
337.2234950656382
 31
0.0
  0
LINE
  5
136
102
{ACAD_REACTORS
330
1BB
330
1BC
102
}
330
47
100
AcDbEntity
  8
0
  6
Continuous
 62
     2
100
AcDbLine
 10
101.2706685158182
 20
339.3175358819655
 30
0.0
 11
102.3743078153864
 21
339.3175358819655
 31
0.0
  0
LINE
  5
137
102
{ACAD_REACTORS
330
1BD
330
1BE
102
}
330
47
100
AcDbEntity
  8
0
  6
Continuous
 62
     2
100
AcDbLine
 10
85.93762437952773
 20
338.096012072442
 30
0.0
 11
85.93762437952773
 21
337.2234950656388
 31
0.0
  0
LINE
  5
138
102
{ACAD_REACTORS
330
1BD
330
1BE
102
}
330
47
100
AcDbEntity
  8
0
  6
Continuous
 62
     2
100
AcDbLine
 10
85.93762437952773
 20
339.0557807799249
 30
0.0
 11
85.93762437952773
 21
339.9282977867282
 31
0.0
  0
LINE
  5
139
330
47
100
AcDbEntity
  8
1
  6
Continuous
 62
     7
100
AcDbLine
 10
201.7749999645116
 20
338.2554916642616
 30
0.0
 11
108.6301954377603
 21
338.2554916642616
 31
0.0
  0
LINE
  5
13A
330
47
100
AcDbEntity
  8
1
  6
Continuous
 62
     6
100
AcDbLine
 10
3.23019543776036
 20
329.7554916642616
 30
0.0
 11
-41.72500003548964
 21
329.7554916642616
 31
0.0
  0
LINE
  5
13B
330
47
100
AcDbEntity
  8
1
  6
Continuous
 62
     7
100
AcDbLine
 10
192.8565916828328
 20
355.2554916642616
 30
0.0
 11
192.8565916828328
 21
346.7554916642616
 31
0.0
  0
LINE
  5
13C
330
47
100
AcDbEntity
  8
1
  6
Continuous
 62
     7
100
AcDbLine
 10
166.3565916828332
 20
355.2554916642616
 30
0.0
 11
166.3565916828332
 21
346.7554916642616
 31
0.0
  0
LINE
  5
13D
330
47
100
AcDbEntity
  8
1
  6
Continuous
 62
     7
100
AcDbLine
 10
108.6301954377603
 20
346.7554916642616
 30
0.0
 11
108.6301954377603
 21
355.2554916642616
 31
0.0
  0
LINE
  5
13E
330
47
100
AcDbEntity
  8
1
  6
Continuous
 62
     7
100
AcDbLine
 10
72.23019543776033
 20
346.7554916642616
 30
0.0
 11
72.23019543776033
 21
355.2554916642616
 31
0.0
  0
LINE
  5
13F
330
47
100
AcDbEntity
  8
1
  6
Continuous
 62
     6
100
AcDbLine
 10
108.6301954377603
 20
346.7554916642616
 30
0.0
 11
201.774999964512
 21
346.7554916642616
 31
0.0
  0
LINE
  5
140
330
47
100
AcDbEntity
  8
1
  6
Continuous
 62
     7
100
AcDbLine
 10
136.5301954377603
 20
338.2554916642615
 30
0.0
 11
136.5301954377603
 21
346.7554916642616
 31
0.0
  0
LINE
  5
141
330
47
100
AcDbEntity
  8
1
  6
PHANTOM
 62
     2
100
AcDbLine
 10
87.71685032432293
 20
350.8804916642615
 30
0.0
 11
82.21685032432293
 21
350.8804916642615
 31
0.0
  0
LINE
  5
142
330
47
100
AcDbEntity
  8
1
  6
PHANTOM
 62
     2
100
AcDbLine
 10
84.96685032432293
 20
353.6304916642615
 30
0.0
 11
84.96685032432293
 21
348.1304916642615
 31
0.0
  0
LINE
  5
143
330
47
100
AcDbEntity
  8
1
  6
DOT_CENTER
 62
     2
100
AcDbLine
 10
76.21685032432293
 20
350.8804916642615
 30
0.0
 11
81.71685032432293
 21
350.8804916642615
 31
0.0
  0
ARC
  5
144
102
{ACAD_REACTORS
330
1BD
330
1BE
102
}
330
47
100
AcDbEntity
  8
0
  6
Continuous
 62
     2
100
AcDbCircle
 10
84.60169646240993
 20
335.2632154809273
 30
0.0
 40
4.852596863498095
100
AcDbArc
 50
74.02000874164747
 51
84.8418552303752
  0
ARC
  5
145
102
{ACAD_REACTORS
330
1BD
330
1BE
102
}
330
47
100
AcDbEntity
  8
0
  6
Continuous
 62
     2
100
AcDbCircle
 10
85.17773707116365
 20
338.4189758368116
 30
0.0
 40
0.9059297849853228
100
AcDbArc
 50
71.55192388185348
 51
113.3722778881304
  0
ARC
  5
146
102
{ACAD_REACTORS
330
1BD
330
1BE
102
}
330
47
100
AcDbEntity
  8
0
  6
Continuous
 62
     2
100
AcDbCircle
 10
85.02129703846163
 20
338.3708249968447
 30
0.0
 40
0.5115800601948034
100
AcDbArc
 50
208.5214732576956
 51
246.6277221118223
  0
ARC
  5
147
102
{ACAD_REACTORS
330
1BD
330
1BE
102
}
330
47
100
AcDbEntity
  8
0
  6
Continuous
 62
     2
100
AcDbCircle
 10
85.17773707116365
 20
338.7328170155547
 30
0.0
 40
0.9059297849848149
100
AcDbArc
 50
246.6277221118682
 51
288.4480761181579
  0
ARC
  5
148
102
{ACAD_REACTORS
330
1BD
330
1BE
102
}
330
47
100
AcDbEntity
  8
0
  6
Continuous
 62
     2
100
AcDbCircle
 10
84.75956933750285
 20
339.9863627915919
 30
0.0
 40
2.227384008972764
100
AcDbArc
 50
288.4480761181326
 51
301.9309089499596
  0
ARC
  5
149
102
{ACAD_REACTORS
330
1B9
330
1BA
102
}
330
47
100
AcDbEntity
  8
0
  6
Continuous
 62
     2
100
AcDbCircle
 10
79.53449560489605
 20
340.7188648205059
 30
0.0
 40
0.9118481501443819
100
AcDbArc
 50
295.3740086781787
 51
64.62599132180748
  0
ARC
  5
14A
102
{ACAD_REACTORS
330
1B9
330
1BA
102
}
330
47
100
AcDbEntity
  8
0
  6
Continuous
 62
     2
100
AcDbCircle
 10
80.06053830298393
 20
342.4335417089806
 30
0.0
 40
0.3157169230759573
100
AcDbArc
 50
90.188967042546
 51
180.0
  0
ARC
  5
14B
102
{ACAD_REACTORS
330
1BB
330
1BC
102
}
330
47
100
AcDbEntity
  8
0
  6
Continuous
 62
     2
100
AcDbCircle
 10
101.2706685158182
 20
338.3630128751394
 30
0.0
 40
0.9545230068260935
100
AcDbArc
 50
90.0
 51
109.3371432194335
  0
ARC
  5
14C
102
{ACAD_REACTORS
330
1BB
330
1BC
102
}
330
47
100
AcDbEntity
  8
0
  6
Continuous
 62
     2
100
AcDbCircle
 10
101.5013557757959
 20
338.5758964261833
 30
0.0
 40
0.9410597353348518
100
AcDbArc
 50
151.478526742367
 51
208.5214732576695
  0
ARC
  5
14D
102
{ACAD_REACTORS
330
1BB
330
1BC
102
}
330
47
100
AcDbEntity
  8
0
  6
Continuous
 62
     2
100
AcDbCircle
 10
101.2804385504176
 20
338.7328170155547
 30
0.0
 40
0.9059297849851757
100
AcDbArc
 50
246.6277221118154
 51
288.448076118084
  0
ARC
  5
14E
102
{ACAD_REACTORS
330
1BB
330
1BC
102
}
330
47
100
AcDbEntity
  8
0
  6
Continuous
 62
     2
100
AcDbCircle
 10
100.8622708167557
 20
339.9863627915913
 30
0.0
 40
2.227384008972665
100
AcDbArc
 50
288.4480761181342
 51
301.9309089499428
  0
ARC
  5
14F
102
{ACAD_REACTORS
330
1BB
330
1BC
102
}
330
47
100
AcDbEntity
  8
0
  6
Continuous
 62
     2
100
AcDbCircle
 10
100.7043979416629
 20
341.8885773714396
 30
0.0
 40
4.852596863498889
100
AcDbArc
 50
275.1581447696373
 51
285.9799912583394
  0
ARC
  5
150
102
{ACAD_REACTORS
330
1BB
330
1BC
102
}
330
47
100
AcDbEntity
  8
0
  6
Continuous
 62
     2
100
AcDbCircle
 10
100.9932540363988
 20
338.688686788218
 30
0.0
 40
1.639695123940475
100
AcDbArc
 50
195.0618917770989
 51
275.1581447696767
  0
ARC
  5
151
102
{ACAD_REACTORS
330
1B3
330
1B4
102
}
330
47
100
AcDbEntity
  8
0
  6
Continuous
 62
     2
100
AcDbCircle
 10
85.26504072470763
 20
342.4066260229297
 30
0.0
 40
1.055365641333708
100
AcDbArc
 50
270.0
 51
90.0
  0
ARC
  5
152
102
{ACAD_REACTORS
330
1B9
330
1BA
102
}
330
47
100
AcDbEntity
  8
0
  6
Continuous
 62
     2
100
AcDbCircle
 10
77.48498961645222
 20
338.0772641429115
 30
0.0
 40
0.3157169230756836
100
AcDbArc
 50
180.0
 51
270.0
  0
ARC
  5
153
102
{ACAD_REACTORS
330
1B9
330
1BA
102
}
330
47
100
AcDbEntity
  8
0
  6
Continuous
 62
     2
100
AcDbCircle
 10
78.96082287746185
 20
342.4337191856287
 30
0.0
 40
0.315716923076593
100
AcDbArc
 50
0.0
 51
90.0
  0
ARC
  5
154
102
{ACAD_REACTORS
330
1B9
330
1BA
102
}
330
47
100
AcDbEntity
  8
0
  6
Continuous
 62
     2
100
AcDbCircle
 10
78.96082287746185
 20
341.8296945665682
 30
0.0
 40
0.3157169230762231
100
AcDbArc
 50
295.1944106485309
 51
0.0
  0
ARC
  5
155
102
{ACAD_REACTORS
330
1B9
330
1BA
102
}
330
47
100
AcDbEntity
  8
0
  6
Continuous
 62
     2
100
AcDbCircle
 10
78.96082287746185
 20
338.0772641429115
 30
0.0
 40
0.3157169230766499
100
AcDbArc
 50
270.0
 51
0.0
  0
ARC
  5
156
102
{ACAD_REACTORS
330
1B9
330
1BA
102
}
330
47
100
AcDbEntity
  8
0
  6
Continuous
 62
     2
100
AcDbCircle
 10
76.89109493970574
 20
343.0377470488614
 30
0.0
 40
0.424244615383941
100
AcDbArc
 50
90.0
 51
180.0
  0
ARC
  5
157
102
{ACAD_REACTORS
330
1B9
330
1BA
102
}
330
47
100
AcDbEntity
  8
0
  6
Continuous
 62
     2
100
AcDbCircle
 10
82.36440703042254
 20
343.0377470488614
 30
0.0
 40
0.4242446153838841
100
AcDbArc
 50
0.0
 51
90.0
  0
ARC
  5
158
102
{ACAD_REACTORS
330
1B9
330
1BA
102
}
330
47
100
AcDbEntity
  8
0
  6
Continuous
 62
     2
100
AcDbCircle
 10
82.36440703042254
 20
337.4732362796613
 30
0.0
 40
0.4242446153834294
100
AcDbArc
 50
270.0
 51
0.0
  0
ARC
  5
159
102
{ACAD_REACTORS
330
1B7
330
1B8
102
}
330
47
100
AcDbEntity
  8
0
  6
Continuous
 62
     2
100
AcDbCircle
 10
91.58279091751405
 20
341.9350869023575
 30
0.0
 40
0.7717997786796373
100
AcDbArc
 50
321.8795802028437
 51
38.12041979716621
  0
ARC
  5
15A
102
{ACAD_REACTORS
330
1B7
330
1B8
102
}
330
47
100
AcDbEntity
  8
0
  6
Continuous
 62
     2
100
AcDbCircle
 10
91.78253095386023
 20
341.7783557242371
 30
0.0
 40
0.5179085730134372
100
AcDbArc
 50
218.1204197971511
 51
321.8795802028566
  0
ARC
  5
15B
102
{ACAD_REACTORS
330
1B5
330
1B6
102
}
330
47
100
AcDbEntity
  8
0
  6
Continuous
 62
     2
100
AcDbCircle
 10
88.10252336490004
 20
338.5758964261833
 30
0.0
 40
1.458034083652078
100
AcDbArc
 50
297.5481481756995
 51
62.45185182429739
  0
ARC
  5
15C
102
{ACAD_REACTORS
330
1B5
330
1B6
102
}
330
47
100
AcDbEntity
  8
0
  6
Continuous
 62
     2
100
AcDbCircle
 10
87.54064358123344
 20
338.5758964261833
 30
0.0
 40
1.458034083651415
100
AcDbArc
 50
117.548148175664
 51
242.4518518243391
  0
ARC
  5
15D
102
{ACAD_REACTORS
330
1B5
330
1B6
102
}
330
47
100
AcDbEntity
  8
0
  6
Continuous
 62
     2
100
AcDbCircle
 10
87.82158347306674
 20
338.0373214158805
 30
0.0
 40
2.065479772208492
100
AcDbArc
 50
62.45185182430527
 51
117.5481481756675
  0
ARC
  5
15E
102
{ACAD_REACTORS
330
1B5
330
1B6
102
}
330
47
100
AcDbEntity
  8
0
  6
Continuous
 62
     2
100
AcDbCircle
 10
87.82158347306674
 20
339.1144714364865
 30
0.0
 40
2.065479772208483
100
AcDbArc
 50
242.4518518243399
 51
297.5481481756875
  0
ARC
  5
15F
102
{ACAD_REACTORS
330
1B7
330
1B8
102
}
330
47
100
AcDbEntity
  8
0
  6
Continuous
 62
     2
100
AcDbCircle
 10
91.98227099020653
 20
341.9350869023575
 30
0.0
 40
0.7717997786797426
100
AcDbArc
 50
141.8795802028338
 51
218.1204197971562
  0
ARC
  5
160
102
{ACAD_REACTORS
330
1B7
330
1B8
102
}
330
47
100
AcDbEntity
  8
0
  6
Continuous
 62
     2
100
AcDbCircle
 10
91.78253095386023
 20
342.091818080478
 30
0.0
 40
0.5179085730135967
100
AcDbArc
 50
38.12041979715324
 51
141.879580202839
  0
ARC
  5
161
102
{ACAD_REACTORS
330
1B9
330
1BA
102
}
330
47
100
AcDbEntity
  8
0
  6
Continuous
 62
     2
100
AcDbCircle
 10
76.89109493970574
 20
337.4732362796613
 30
0.0
 40
0.4242446153828041
100
AcDbArc
 50
180.0
 51
270.0
  0
ARC
  5
162
102
{ACAD_REACTORS
330
1B9
330
1BA
102
}
330
47
100
AcDbEntity
  8
0
  6
Continuous
 62
     2
100
AcDbCircle
 10
78.96082287746185
 20
339.6080350744431
 30
0.0
 40
0.315716923076593
100
AcDbArc
 50
0.0
 51
64.80558935146468
  0
ARC
  5
163
102
{ACAD_REACTORS
330
1B9
330
1BA
102
}
330
47
100
AcDbEntity
  8
0
  6
Continuous
 62
     2
100
AcDbCircle
 10
79.48340732503684
 20
340.7188648205059
 30
0.0
 40
0.9118975235575889
100
AcDbArc
 50
115.194410648529
 51
244.8055893514878
  0
ARC
  5
164
102
{ACAD_REACTORS
330
1B9
330
1BA
102
}
330
47
100
AcDbEntity
  8
0
  6
Continuous
 62
     2
100
AcDbCircle
 10
77.48498961645222
 20
342.4337191856287
 30
0.0
 40
0.3157169230760815
100
AcDbArc
 50
90.0
 51
180.0
  0
ARC
  5
165
102
{ACAD_REACTORS
330
1B3
330
1B4
102
}
330
47
100
AcDbEntity
  8
0
  6
Continuous
 62
     2
100
AcDbCircle
 10
84.82356819846925
 20
342.4460219941523
 30
0.0
 40
0.3528638246712035
100
AcDbArc
 50
270.0
 51
90.0
  0
ARC
  5
166
102
{ACAD_REACTORS
330
1B7
330
1B8
102
}
330
47
100
AcDbEntity
  8
0
  6
Continuous
 62
     2
100
AcDbCircle
 10
91.56625894369503
 20
341.9350869023575
 30
0.0
 40
1.526904761905996
100
AcDbArc
 50
90.0
 51
270.0
  0
ARC
  5
167
102
{ACAD_REACTORS
330
1BB
330
1BC
102
}
330
47
100
AcDbEntity
  8
0
  6
Continuous
 62
     2
100
AcDbCircle
 10
100.9932540363988
 20
338.4631060641483
 30
0.0
 40
1.639695123940214
100
AcDbArc
 50
90.0
 51
164.9381082228954
  0
ARC
  5
168
102
{ACAD_REACTORS
330
1BB
330
1BC
102
}
330
47
100
AcDbEntity
  8
0
  6
Continuous
 62
     2
100
AcDbCircle
 10
100.5741261929371
 20
338.5758964261833
 30
0.0
 40
1.205656168392932
100
AcDbArc
 50
164.9381082229075
 51
195.0618917771004
  0
ARC
  5
169
102
{ACAD_REACTORS
330
1BB
330
1BC
102
}
330
47
100
AcDbEntity
  8
0
  6
Continuous
 62
     2
100
AcDbCircle
 10
101.1239985177145
 20
338.3708249968447
 30
0.0
 40
0.5115800601959548
100
AcDbArc
 50
208.5214732576762
 51
246.6277221118399
  0
ARC
  5
16A
102
{ACAD_REACTORS
330
1BB
330
1BC
102
}
330
47
100
AcDbEntity
  8
0
  6
Continuous
 62
     2
100
AcDbCircle
 10
101.1239985177145
 20
338.7809678555223
 30
0.0
 40
0.5115800601943024
100
AcDbArc
 50
109.337143219488
 51
151.4785267424301
  0
ARC
  5
16B
102
{ACAD_REACTORS
330
1B9
330
1BA
102
}
330
47
100
AcDbEntity
  8
0
  6
Continuous
 62
     2
100
AcDbCircle
 10
80.06053830298393
 20
339.0278718138425
 30
0.0
 40
0.315716923076792
100
AcDbArc
 50
180.0
 51
269.8110329574542
  0
ARC
  5
16C
102
{ACAD_REACTORS
330
1B9
330
1BA
102
}
330
47
100
AcDbEntity
  8
0
  6
Continuous
 62
     2
100
AcDbCircle
 10
80.06615443829395
 20
340.7307067614114
 30
0.0
 40
2.018561131933266
100
AcDbArc
 50
269.8110329575858
 51
90.18896704241416
  0
ARC
  5
16D
102
{ACAD_REACTORS
330
1B9
330
1BA
102
}
330
47
100
AcDbEntity
  8
0
  6
Continuous
 62
     2
100
AcDbCircle
 10
80.06053830298393
 20
341.8280064204737
 30
0.0
 40
0.315716923076792
100
AcDbArc
 50
180.0
 51
244.6259913216437
  0
ARC
  5
16E
102
{ACAD_REACTORS
330
1B9
330
1BA
102
}
330
47
100
AcDbEntity
  8
0
  6
Continuous
 62
     2
100
AcDbCircle
 10
80.06053830298393
 20
339.6097232205375
 30
0.0
 40
0.3157169230766355
100
AcDbArc
 50
115.374008678343
 51
180.0
  0
ARC
  5
16F
102
{ACAD_REACTORS
330
1BD
330
1BE
102
}
330
47
100
AcDbEntity
  8
0
  6
Continuous
 62
     2
100
AcDbCircle
 10
84.89055255714584
 20
338.4631060641483
 30
0.0
 40
1.63969512394062
100
AcDbArc
 50
84.84185523036271
 51
164.9381082228864
  0
ARC
  5
170
102
{ACAD_REACTORS
330
1BD
330
1BE
102
}
330
47
100
AcDbEntity
  8
0
  6
Continuous
 62
     2
100
AcDbCircle
 10
84.47142471368304
 20
338.5758964261833
 30
0.0
 40
1.205656168390914
100
AcDbArc
 50
164.9381082228817
 51
195.0618917770948
  0
ARC
  5
171
102
{ACAD_REACTORS
330
1BD
330
1BE
102
}
330
47
100
AcDbEntity
  8
0
  6
Continuous
 62
     2
100
AcDbCircle
 10
84.89055255714584
 20
338.688686788218
 30
0.0
 40
1.63969512393935
100
AcDbArc
 50
195.0618917770848
 51
275.1581447696396
  0
ARC
  5
172
102
{ACAD_REACTORS
330
1BD
330
1BE
102
}
330
47
100
AcDbEntity
  8
0
  6
Continuous
 62
     2
100
AcDbCircle
 10
84.60169646240993
 20
341.8885773714396
 30
0.0
 40
4.852596863498166
100
AcDbArc
 50
275.1581447696249
 51
285.9799912583529
  0
ARC
  5
173
102
{ACAD_REACTORS
330
1BD
330
1BE
102
}
330
47
100
AcDbEntity
  8
0
  6
Continuous
 62
     2
100
AcDbCircle
 10
85.39865429654193
 20
338.5758964261833
 30
0.0
 40
0.9410597353332545
100
AcDbArc
 50
151.4785267422669
 51
208.5214732577118
  0
ARC
  5
174
102
{ACAD_REACTORS
330
1BD
330
1BE
102
}
330
47
100
AcDbEntity
  8
0
  6
Continuous
 62
     2
100
AcDbCircle
 10
85.02129703846163
 20
338.7809678555223
 30
0.0
 40
0.5115800601947474
100
AcDbArc
 50
113.3722778882055
 51
151.4785267423044
  0
ARC
  5
175
102
{ACAD_REACTORS
330
1BD
330
1BE
102
}
330
47
100
AcDbEntity
  8
0
  6
Continuous
 62
     2
100
AcDbCircle
 10
84.75956933750285
 20
337.1654300607751
 30
0.0
 40
2.227384008973357
100
AcDbArc
 50
58.06909105003879
 51
71.55192388186653
  0
ARC
  5
176
102
{ACAD_REACTORS
330
1B5
330
1B6
102
}
330
47
100
AcDbEntity
  8
0
  6
Continuous
 62
     2
100
AcDbCircle
 10
87.82158347306674
 20
338.7326276043037
 30
0.0
 40
0.5179085730133349
100
AcDbArc
 50
38.12041979715197
 51
141.8795802028538
  0
ARC
  5
177
102
{ACAD_REACTORS
330
1B5
330
1B6
102
}
330
47
100
AcDbEntity
  8
0
  6
Continuous
 62
     2
100
AcDbCircle
 10
88.02132350941284
 20
338.5758964261833
 30
0.0
 40
0.7717997786794106
100
AcDbArc
 50
141.8795802028413
 51
218.1204197971753
  0
ARC
  5
178
102
{ACAD_REACTORS
330
1B5
330
1B6
102
}
330
47
100
AcDbEntity
  8
0
  6
Continuous
 62
     2
100
AcDbCircle
 10
87.82158347306674
 20
338.4191652480632
 30
0.0
 40
0.5179085730137529
100
AcDbArc
 50
218.1204197971956
 51
321.8795802027985
  0
ARC
  5
179
102
{ACAD_REACTORS
330
1B5
330
1B6
102
}
330
47
100
AcDbEntity
  8
0
  6
Continuous
 62
     2
100
AcDbCircle
 10
87.62184343672033
 20
338.5758964261833
 30
0.0
 40
0.7717997786797649
100
AcDbArc
 50
321.8795802028351
 51
38.12041979714831
  0
CIRCLE
  5
17A
330
47
100
AcDbEntity
  8
1
  6
Continuous
 62
     2
100
AcDbCircle
 10
84.96685032432293
 20
350.8804916642615
 30
0.0
 40
2.5
  0
CIRCLE
  5
17B
330
47
100
AcDbEntity
  8
1
  6
Continuous
 62
     2
100
AcDbCircle
 10
84.96685032432293
 20
350.8804916642615
 30
0.0
 40
1.249999999999915
  0
CIRCLE
  5
17C
102
{ACAD_REACTORS
330
1B9
330
1BA
102
}
330
47
100
AcDbEntity
  8
0
  6
Continuous
 62
     2
100
AcDbCircle
 10
79.51068059022325
 20
340.7188648205059
 30
0.0
 40
0.4709789327785074
  0
MTEXT
  5
17E
330
47
100
AcDbEntity
  8
1
 62
     3
100
AcDbMText
 10
-85.21993224941787
 20
516.5467998195604
 30
0.0
 40
1.8
 41
0.0
 71
     7
 72
     1
  3
Weitergabe sowie Vervielf\U+00e4ltigung dieses Dokuments, Verwertung und \PMitteilung seines Inhalts sind verboten, soweit nicht ausdr\U+00fccklich gestattet. \PZuwiderhandlungen verpflichten zu Schadenersatz. Alle Rechte f\U+00fcr den Fall\Pder Pat
  1
ent-, Gebrauchsmuster- oder Designeintragung vorbehalten.
  7
CONVERTER_11
 73
     1
 44
0.99639855942377
  0
MTEXT
  5
17F
330
47
100
AcDbEntity
  8
1
 62
     3
100
AcDbMText
 10
97.63317758937023
 20
516.5467998195604
 30
0.0
 40
1.8
 41
0.0
 71
     7
 72
     1
  3
Transfer or duplication of this document as well as the utilisation or\Pcommunication of its content are not permitted unless express consent\Pis granted. Violations give rise to claims for damages. All rights reserved\Pin case of patent, utility mo
  1
del or design patent registrations.
  7
CONVERTER_11
 73
     1
 44
0.99639855942377
  0
TEXT
  5
180
330
47
100
AcDbEntity
  8
1
 62
     2
100
AcDbText
 10
91.43019543776015
 20
330.99647444927
 30
0.0
 40
1.8
  1
of
 41
0.9
  7
CONVERTER_11
100
AcDbText
  0
TEXT
  5
181
330
47
100
AcDbEntity
  8
1
 62
     2
100
AcDbText
 10
73.23019543776033
 20
330.99647444927
 30
0.0
 40
1.8
  1
page
 41
0.9
  7
CONVERTER_11
100
AcDbText
  0
TEXT
  5
182
330
47
100
AcDbEntity
  8
1
 62
     2
100
AcDbText
 10
81.87646040810233
 20
330.9562430104596
 30
0.0
 40
1.8
  1
1
 41
0.9
  7
CONVERTER_11
100
AcDbText
  0
TEXT
  5
183
330
47
100
AcDbEntity
  8
1
 62
     2
100
AcDbText
 10
96.66550424757384
 20
331.0054916642615
 30
0.0
 40
1.8
  1
1
 41
0.9
  7
CONVERTER_11
100
AcDbText
  0
MTEXT
  5
185
330
47
100
AcDbEntity
  8
1
 62
     7
100
AcDbMText
 10
155.2025977011358
 20
333.0054916642619
 30
0.0
 40
3.0
 41
0.0
 71
     5
 72
     1
  1
D-STTB 2,5
  7
CONVERTER_12
 73
     1
 44
1.20048019207683
  0
MTEXT
  5
186
330
47
100
AcDbEntity
  8
1
 62
     2
100
AcDbMText
 10
109.6301954377603
 20
337.2554916642616
 30
0.0
 40
1.8
 41
0.0
 71
     1
 72
     1
  1
description
  7
CONVERTER_11
 73
     1
 44
1.20048019207683
  0
MTEXT
  5
187
330
47
100
AcDbEntity
  8
1
 62
     3
100
AcDbMText
 10
98.43019543776023
 20
350.8804916642616
 30
0.0
 40
2.5
 41
0.0
 71
     5
 72
     1
  1
DIN A4
  7
CONVERTER_11
 73
     1
 44
1.20048019207683
  0
MTEXT
  5
188
330
47
100
AcDbEntity
  8
1
 62
     7
100
AcDbMText
 10
-87.72500003548873
 20
352.2554916642616
 30
0.0
 40
3.5
 41
0.0
 71
     5
 72
     1
  1
D
  7
CONVERTER_11
 73
     1
 44
1.20048019207683
  0
MTEXT
  5
189
330
47
100
AcDbEntity
  8
1
 62
     7
100
AcDbMText
 10
-87.72500003548873
 20
404.7554916642616
 30
0.0
 40
3.5
 41
0.0
 71
     5
 72
     1
  1
C
  7
CONVERTER_11
 73
     1
 44
1.20048019207683
  0
MTEXT
  5
18A
330
47
100
AcDbEntity
  8
1
 62
     7
100
AcDbMText
 10
-87.72500003548873
 20
454.7554916642616
 30
0.0
 40
3.5
 41
0.0
 71
     5
 72
     1
  1
B
  7
CONVERTER_11
 73
     1
 44
1.20048019207683
  0
MTEXT
  5
18B
330
47
100
AcDbEntity
  8
1
 62
     7
100
AcDbMText
 10
-87.72500003548873
 20
507.2554916642616
 30
0.0
 40
3.5
 41
0.0
 71
     5
 72
     1
  1
A
  7
CONVERTER_11
 73
     1
 44
1.20048019207683
  0
MTEXT
  5
18C
330
47
100
AcDbEntity
  8
1
 62
     7
100
AcDbMText
 10
182.5249999645095
 20
327.2554916642615
 30
0.0
 40
3.5
 41
0.0
 71
     5
 72
     1
  1
6
  7
CONVERTER_11
 73
     1
 44
1.20048019207683
  0
MTEXT
  5
18D
330
47
100
AcDbEntity
  8
1
 62
     7
100
AcDbMText
 10
133.2749999645103
 20
327.2554916642615
 30
0.0
 40
3.5
 41
0.0
 71
     5
 72
     1
  1
5
  7
CONVERTER_11
 73
     1
 44
1.20048019207683
  0
MTEXT
  5
18E
330
47
100
AcDbEntity
  8
1
 62
     7
100
AcDbMText
 10
83.27499996451024
 20
327.2554916642615
 30
0.0
 40
3.5
 41
0.0
 71
     5
 72
     1
  1
4
  7
CONVERTER_11
 73
     1
 44
1.20048019207683
  0
MTEXT
  5
18F
330
47
100
AcDbEntity
  8
1
 62
     7
100
AcDbMText
 10
33.27499996451036
 20
327.2554916642615
 30
0.0
 40
3.5
 41
0.0
 71
     5
 72
     1
  1
3
  7
CONVERTER_11
 73
     1
 44
1.20048019207683
  0
MTEXT
  5
190
330
47
100
AcDbEntity
  8
1
 62
     7
100
AcDbMText
 10
-16.72500003548964
 20
327.2554916642615
 30
0.0
 40
3.5
 41
0.0
 71
     5
 72
     1
  1
2
  7
CONVERTER_11
 73
     1
 44
1.20048019207683
  0
MTEXT
  5
191
330
47
100
AcDbEntity
  8
1
 62
     7
100
AcDbMText
 10
-65.97500003548924
 20
327.2554916642615
 30
0.0
 40
3.5
 41
0.0
 71
     5
 72
     1
  1
1
  7
CONVERTER_11
 73
     1
 44
1.20048019207683
  0
MTEXT
  5
192
330
47
100
AcDbEntity
  8
1
 62
     7
100
AcDbMText
 10
204.2749999645093
 20
352.2554916642616
 30
0.0
 40
3.5
 41
0.0
 71
     5
 72
     1
  1
D
  7
CONVERTER_11
 73
     1
 44
1.20048019207683
  0
MTEXT
  5
193
330
47
100
AcDbEntity
  8
1
 62
     7
100
AcDbMText
 10
204.2749999645093
 20
454.7554916642636
 30
0.0
 40
3.5
 41
0.0
 71
     5
 72
     1
  1
B
  7
CONVERTER_11
 73
     1
 44
1.20048019207683
  0
MTEXT
  5
194
330
47
100
AcDbEntity
  8
1
 62
     7
100
AcDbMText
 10
204.2749999645093
 20
507.2554916642616
 30
0.0
 40
3.5
 41
0.0
 71
     5
 72
     1
  1
A
  7
CONVERTER_11
 73
     1
 44
1.20048019207683
  0
MTEXT
  5
195
330
47
100
AcDbEntity
  8
1
 62
     7
100
AcDbMText
 10
204.2749999645093
 20
404.7554916642636
 30
0.0
 40
3.5
 41
0.0
 71
     5
 72
     1
  1
C
  7
CONVERTER_11
 73
     1
 44
1.20048019207683
  0
MTEXT
  5
196
330
47
100
AcDbEntity
  8
1
 62
     2
100
AcDbMText
 10
37.79218071271282
 20
342.5054916642615
 30
0.0
 40
2.0
 41
0.0
 71
     5
 72
     1
  1
General Information\P- Simplified representation\P- Document excluded from change process\P- Linear dimensions [mm]
  7
CONVERTER_11
 73
     1
 44
1.20048019207683
  0
TEXT
  5
197
330
47
100
AcDbEntity
  8
1
 62
     7
100
AcDbText
 10
110.1301954377601
 20
339.5554916642615
 30
0.0
 40
2.5
  1
3030459
 41
0.81
  7
CONVERTER_12
100
AcDbText
  0
MTEXT
  5
198
330
47
100
AcDbEntity
  8
1
 62
     2
100
AcDbMText
 10
109.7301954377603
 20
345.7554916642616
 30
0.0
 40
1.8
 41
0.0
 71
     1
 72
     1
  1
ident.-No.
  7
CONVERTER_11
 73
     1
 44
1.20048019207683
  0
MTEXT
  5
199
330
47
100
AcDbEntity
  8
1
 62
     2
100
AcDbMText
 10
193.9565916828331
 20
354.2554916642616
 30
0.0
 40
1.8
 41
0.0
 71
     1
 72
     1
  1
scale
  7
CONVERTER_11
 73
     1
 44
1.20048019207683
  0
MTEXT
  5
19B
330
47
100
AcDbEntity
  8
1
 62
     3
100
AcDbMText
 10
197.3157958236727
 20
348.0554916642617
 30
0.0
 40
2.5
 41
0.0
 71
     8
 72
     1
  1
1:1
  7
CONVERTER_13
 73
     1
 44
1.32052821128451
  0
TEXT
  5
19C
330
47
100
AcDbEntity
  8
1
 62
     7
100
AcDbText
 10
109.7301954377603
 20
348.0554916642615
 30
0.0
 40
2.5
  1
00317928
 41
0.81
  7
CONVERTER_12
100
AcDbText
  0
MTEXT
  5
19E
330
47
100
AcDbEntity
  8
1
 62
     2
100
AcDbMText
 10
109.7301954377603
 20
354.2554916642616
 30
0.0
 40
1.8
 41
0.0
 71
     1
 72
     1
  1
document-No. / RI
  7
CONVERTER_14
 73
     1
 44
1.32052821128451
  0
TEXT
  5
19F
330
47
100
AcDbEntity
  8
1
 62
     3
100
AcDbText
 10
137.5301954377603
 20
339.5554916642615
 30
0.0
 40
2.5
  1
TECDOC 2D_Productdrawing
 41
0.81
  7
CONVERTER_12
100
AcDbText
  0
MTEXT
  5
1A0
330
47
100
AcDbEntity
  8
1
 62
     2
100
AcDbMText
 10
137.5301954377603
 20
345.7554916642615
 30
0.0
 40
1.8
 41
0.0
 71
     1
 72
     1
  1
document-type
  7
CONVERTER_11
 73
     1
 44
1.20048019207683
  0
MTEXT
  5
1A1
330
47
100
AcDbEntity
  8
1
 62
     2
100
AcDbMText
 10
167.3565916828332
 20
354.2554916642615
 30
0.0
 40
1.8
 41
0.0
 71
     1
 72
     1
  1
date
  7
CONVERTER_11
 73
     1
 44
1.32052821128451
  0
TEXT
  5
1A2
330
47
100
AcDbEntity
  8
1
 62
     3
100
AcDbText
 10
167.3565916828332
 20
348.0554916642615
 30
0.0
 40
2.5
  1
20.03.2018
 41
0.81
  7
CONVERTER_12
100
AcDbText
  0
TEXT
  5
1A3
330
47
100
AcDbEntity
  8
1
 62
     7
100
AcDbText
 10
129.7601076568161
 20
348.0554916642615
 30
0.0
 40
2.5
  1
01
 41
0.81
  7
CONVERTER_12
100
AcDbText
  0
TEXT
  5
1A4
330
47
100
AcDbEntity
  8
1
 62
     7
100
AcDbText
 10
127.6037431597741
 20
348.0554916642615
 30
0.0
 40
2.5
  1
/
 41
0.9
  7
CONVERTER_11
100
AcDbText
  0
HATCH
  5
1A5
330
47
100
AcDbEntity
  8
1
  6
Continuous
 62
     2
100
AcDbHatch
 10
0.0
 20
0.0
 30
0.0
210
0.0
220
0.0
230
1.0
  2
_USER
 70
     0
 71
     1
 91
        1
 92
        1
 93
       12
 72
     1
 10
89.89769615072143
 20
340.4081821404523
 11
88.70490344855503
 21
340.4081821404523
 72
     1
 10
88.70490344855503
 20
340.4081821404523
 11
88.70490344855503
 21
341.542454249296
 72
     1
 10
88.70490344855503
 20
341.542454249296
 11
87.65524587064755
 21
341.542454249296
 72
     1
 10
87.65524587064755
 20
341.542454249296
 11
87.65524587064755
 21
340.4081821404523
 72
     1
 10
87.65524587064755
 20
340.4081821404523
 11
86.46245316848095
 21
340.4081821404523
 72
     1
 10
86.46245316848095
 20
340.4081821404523
 11
86.46245316848095
 21
343.4619916642635
 72
     1
 10
86.46245316848095
 20
343.4619916642635
 11
87.65524587064755
 21
343.4619916642635
 72
     1
 10
87.65524587064755
 20
343.4619916642635
 11
87.65524587064755
 21
342.3931583309288
 72
     1
 10
87.65524587064755
 20
342.3931583309288
 11
88.70490344855503
 21
342.3931583309288
 72
     1
 10
88.70490344855503
 20
342.3931583309288
 11
88.70490344855503
 21
343.4619916642635
 72
     1
 10
88.70490344855503
 20
343.4619916642635
 11
89.89769615072143
 21
343.4619916642635
 72
     1
 10
89.89769615072143
 20
343.4619916642635
 11
89.89769615072143
 21
340.4081821404523
 97
       12
330
111
330
112
330
FC
330
FB
330
FA
330
10E
330
F9
330
10F
330
110
330
F8
330
F7
330
F6
 75
     1
 76
     0
 52
45.0
 41
0.1
 77
     0
 78
     1
 53
45.0
 43
0.0
 44
0.0
 45
-0.0707106781186548
 46
0.0707106781186548
 79
     0
 98
        1
 10
0.0
 20
0.0
  0
HATCH
  5
1A6
330
47
100
AcDbEntity
  8
1
  6
Continuous
 62
     2
100
AcDbHatch
 10
0.0
 20
0.0
 30
0.0
210
0.0
220
0.0
230
1.0
  2
_USER
 70
     0
 71
     1
 91
        1
 92
        1
 93
       12
 72
     1
 10
89.89769615072143
 20
340.4081821404523
 11
88.70490344855503
 21
340.4081821404523
 72
     1
 10
88.70490344855503
 20
340.4081821404523
 11
88.70490344855503
 21
341.542454249296
 72
     1
 10
88.70490344855503
 20
341.542454249296
 11
87.65524587064755
 21
341.542454249296
 72
     1
 10
87.65524587064755
 20
341.542454249296
 11
87.65524587064755
 21
340.4081821404523
 72
     1
 10
87.65524587064755
 20
340.4081821404523
 11
86.46245316848095
 21
340.4081821404523
 72
     1
 10
86.46245316848095
 20
340.4081821404523
 11
86.46245316848095
 21
343.4619916642635
 72
     1
 10
86.46245316848095
 20
343.4619916642635
 11
87.65524587064755
 21
343.4619916642635
 72
     1
 10
87.65524587064755
 20
343.4619916642635
 11
87.65524587064755
 21
342.3931583309288
 72
     1
 10
87.65524587064755
 20
342.3931583309288
 11
88.70490344855503
 21
342.3931583309288
 72
     1
 10
88.70490344855503
 20
342.3931583309288
 11
88.70490344855503
 21
343.4619916642635
 72
     1
 10
88.70490344855503
 20
343.4619916642635
 11
89.89769615072143
 21
343.4619916642635
 72
     1
 10
89.89769615072143
 20
343.4619916642635
 11
89.89769615072143
 21
340.4081821404523
 97
       12
330
111
330
112
330
FC
330
FB
330
FA
330
10E
330
F9
330
10F
330
110
330
F8
330
F7
330
F6
 75
     1
 76
     0
 52
45.0
 41
0.1
 77
     0
 78
     1
 53
45.0
 43
0.0
 44
0.0
 45
-0.0707106781186548
 46
0.0707106781186548
 79
     0
 98
        1
 10
0.0
 20
0.0
  0
HATCH
  5
1A7
330
47
100
AcDbEntity
  8
1
  6
Continuous
 62
     2
100
AcDbHatch
 10
0.0
 20
0.0
 30
0.0
210
0.0
220
0.0
230
1.0
  2
_USER
 70
     0
 71
     1
 91
        1
 92
        1
 93
       10
 72
     1
 10
92.13999549990973
 20
338.794025677884
 11
90.89949108965683
 21
340.102801188089
 72
     1
 10
90.89949108965683
 20
340.102801188089
 11
89.70669838748924
 21
340.102801188089
 72
     1
 10
89.70669838748924
 20
340.102801188089
 11
89.70669838748924
 21
337.0489916642779
 72
     1
 10
89.70669838748924
 20
337.0489916642779
 11
90.89949108965683
 21
337.0489916642779
 72
     1
 10
90.89949108965683
 20
337.0489916642779
 11
90.89949108965683
 21
338.3577671744826
 72
     1
 10
90.89949108965683
 20
338.3577671744826
 11
92.13999549990973
 21
337.0489916642779
 72
     1
 10
92.13999549990973
 20
337.0489916642779
 11
93.33278820207613
 21
337.0489916642779
 72
     1
 10
93.33278820207613
 20
337.0489916642779
 11
93.33278820207613
 21
340.102801188089
 72
     1
 10
93.33278820207613
 20
340.102801188089
 11
92.13999549990973
 21
340.102801188089
 72
     1
 10
92.13999549990973
 20
340.102801188089
 11
92.13999549990973
 21
338.794025677884
 97
       10
330
11F
330
EF
330
EE
330
F1
330
11A
330
11B
330
F0
330
11C
330
11D
330
11E
 75
     1
 76
     0
 52
45.0
 41
0.1
 77
     0
 78
     1
 53
45.0
 43
0.0
 44
0.0
 45
-0.0707106781186548
 46
0.0707106781186548
 79
     0
 98
        1
 10
0.0
 20
0.0
  0
HATCH
  5
1A8
330
47
100
AcDbEntity
  8
1
  6
Continuous
 62
     2
100
AcDbHatch
 10
0.0
 20
0.0
 30
0.0
210
0.0
220
0.0
230
1.0
  2
_USER
 70
     0
 71
     1
 91
        1
 92
        1
 93
       10
 72
     1
 10
92.13999549990973
 20
338.794025677884
 11
90.89949108965683
 21
340.102801188089
 72
     1
 10
90.89949108965683
 20
340.102801188089
 11
89.70669838748924
 21
340.102801188089
 72
     1
 10
89.70669838748924
 20
340.102801188089
 11
89.70669838748924
 21
337.0489916642779
 72
     1
 10
89.70669838748924
 20
337.0489916642779
 11
90.89949108965683
 21
337.0489916642779
 72
     1
 10
90.89949108965683
 20
337.0489916642779
 11
90.89949108965683
 21
338.3577671744826
 72
     1
 10
90.89949108965683
 20
338.3577671744826
 11
92.13999549990973
 21
337.0489916642779
 72
     1
 10
92.13999549990973
 20
337.0489916642779
 11
93.33278820207613
 21
337.0489916642779
 72
     1
 10
93.33278820207613
 20
337.0489916642779
 11
93.33278820207613
 21
340.102801188089
 72
     1
 10
93.33278820207613
 20
340.102801188089
 11
92.13999549990973
 21
340.102801188089
 72
     1
 10
92.13999549990973
 20
340.102801188089
 11
92.13999549990973
 21
338.794025677884
 97
       10
330
11F
330
EF
330
EE
330
F1
330
11A
330
11B
330
F0
330
11C
330
11D
330
11E
 75
     1
 76
     0
 52
45.0
 41
0.1
 77
     0
 78
     1
 53
45.0
 43
0.0
 44
0.0
 45
-0.0707106781186548
 46
0.0707106781186548
 79
     0
 98
        1
 10
0.0
 20
0.0
  0
HATCH
  5
1A9
330
47
100
AcDbEntity
  8
1
  6
Continuous
 62
     2
100
AcDbHatch
 10
0.0
 20
0.0
 30
0.0
210
0.0
220
0.0
230
1.0
  2
_USER
 70
     0
 71
     1
 91
        1
 92
        1
 93
       10
 72
     1
 10
97.38843432032945
 20
342.1532161540582
 11
96.14792991007545
 21
343.4619916642635
 72
     1
 10
96.14792991007545
 20
343.4619916642635
 11
94.95513720790893
 21
343.4619916642635
 72
     1
 10
94.95513720790893
 20
343.4619916642635
 11
94.95513720790893
 21
340.4081821404523
 72
     1
 10
94.95513720790893
 20
340.4081821404523
 11
96.14792991007545
 21
340.4081821404523
 72
     1
 10
96.14792991007545
 20
340.4081821404523
 11
96.14792991007545
 21
341.7169576506569
 72
     1
 10
96.14792991007545
 20
341.7169576506569
 11
97.38843432032945
 21
340.4081821404523
 72
     1
 10
97.38843432032945
 20
340.4081821404523
 11
98.58122702249605
 21
340.4081821404523
 72
     1
 10
98.58122702249605
 20
340.4081821404523
 11
98.58122702249605
 21
343.4619916642635
 72
     1
 10
98.58122702249605
 20
343.4619916642635
 11
97.38843432032945
 21
343.4619916642635
 72
     1
 10
97.38843432032945
 20
343.4619916642635
 11
97.38843432032945
 21
342.1532161540582
 97
       10
330
124
330
EC
330
EB
330
125
330
EA
330
120
330
121
330
122
330
123
330
ED
 75
     1
 76
     0
 52
45.0
 41
0.1
 77
     0
 78
     1
 53
45.0
 43
0.0
 44
0.0
 45
-0.0707106781186548
 46
0.0707106781186548
 79
     0
 98
        1
 10
0.0
 20
0.0
  0
HATCH
  5
1AA
330
47
100
AcDbEntity
  8
1
  6
Continuous
 62
     2
100
AcDbHatch
 10
0.0
 20
0.0
 30
0.0
210
0.0
220
0.0
230
1.0
  2
_USER
 70
     0
 71
     1
 91
        1
 92
        1
 93
       10
 72
     1
 10
97.38843432032945
 20
342.1532161540582
 11
96.14792991007545
 21
343.4619916642635
 72
     1
 10
96.14792991007545
 20
343.4619916642635
 11
94.95513720790893
 21
343.4619916642635
 72
     1
 10
94.95513720790893
 20
343.4619916642635
 11
94.95513720790893
 21
340.4081821404523
 72
     1
 10
94.95513720790893
 20
340.4081821404523
 11
96.14792991007545
 21
340.4081821404523
 72
     1
 10
96.14792991007545
 20
340.4081821404523
 11
96.14792991007545
 21
341.7169576506569
 72
     1
 10
96.14792991007545
 20
341.7169576506569
 11
97.38843432032945
 21
340.4081821404523
 72
     1
 10
97.38843432032945
 20
340.4081821404523
 11
98.58122702249605
 21
340.4081821404523
 72
     1
 10
98.58122702249605
 20
340.4081821404523
 11
98.58122702249605
 21
343.4619916642635
 72
     1
 10
98.58122702249605
 20
343.4619916642635
 11
97.38843432032945
 21
343.4619916642635
 72
     1
 10
97.38843432032945
 20
343.4619916642635
 11
97.38843432032945
 21
342.1532161540582
 97
       10
330
124
330
EC
330
EB
330
125
330
EA
330
120
330
121
330
122
330
123
330
ED
 75
     1
 76
     0
 52
45.0
 41
0.1
 77
     0
 78
     1
 53
45.0
 43
0.0
 44
0.0
 45
-0.0707106781186548
 46
0.0707106781186548
 79
     0
 98
        1
 10
0.0
 20
0.0
  0
HATCH
  5
1AB
330
47
100
AcDbEntity
  8
1
  6
Continuous
 62
     2
100
AcDbHatch
 10
0.0
 20
0.0
 30
0.0
210
0.0
220
0.0
230
1.0
  2
_USER
 70
     0
 71
     1
 91
        1
 92
        1
 93
        8
 72
     1
 10
96.29091410344995
 20
340.102801188089
 11
93.47592332633633
 21
340.102801188089
 72
     1
 10
93.47592332633633
 20
340.102801188089
 11
93.47592332633633
 21
339.3175358819655
 72
     1
 10
93.47592332633633
 20
339.3175358819655
 11
94.28702236381093
 21
339.3175358819655
 72
     1
 10
94.28702236381093
 20
339.3175358819655
 11
94.28702236381093
 21
337.0489916642779
 72
     1
 10
94.28702236381093
 20
337.0489916642779
 11
95.47981506597745
 21
337.0489916642779
 72
     1
 10
95.47981506597745
 20
337.0489916642779
 11
95.47981506597745
 21
339.3175358819655
 72
     1
 10
95.47981506597745
 20
339.3175358819655
 11
96.29091410344995
 21
339.3175358819655
 72
     1
 10
96.29091410344995
 20
339.3175358819655
 11
96.29091410344995
 21
340.102801188089
 97
        8
330
E6
330
126
330
E5
330
127
330
128
330
E9
330
E8
330
E7
 75
     1
 76
     0
 52
45.0
 41
0.1
 77
     0
 78
     1
 53
45.0
 43
0.0
 44
0.0
 45
-0.0707106781186548
 46
0.0707106781186548
 79
     0
 98
        1
 10
0.0
 20
0.0
  0
HATCH
  5
1AC
330
47
100
AcDbEntity
  8
1
  6
Continuous
 62
     2
100
AcDbHatch
 10
0.0
 20
0.0
 30
0.0
210
0.0
220
0.0
230
1.0
  2
_USER
 70
     0
 71
     1
 91
        1
 92
        1
 93
        8
 72
     1
 10
96.29091410344995
 20
340.102801188089
 11
93.47592332633633
 21
340.102801188089
 72
     1
 10
93.47592332633633
 20
340.102801188089
 11
93.47592332633633
 21
339.3175358819655
 72
     1
 10
93.47592332633633
 20
339.3175358819655
 11
94.28702236381093
 21
339.3175358819655
 72
     1
 10
94.28702236381093
 20
339.3175358819655
 11
94.28702236381093
 21
337.0489916642779
 72
     1
 10
94.28702236381093
 20
337.0489916642779
 11
95.47981506597745
 21
337.0489916642779
 72
     1
 10
95.47981506597745
 20
337.0489916642779
 11
95.47981506597745
 21
339.3175358819655
 72
     1
 10
95.47981506597745
 20
339.3175358819655
 11
96.29091410344995
 21
339.3175358819655
 72
     1
 10
96.29091410344995
 20
339.3175358819655
 11
96.29091410344995
 21
340.102801188089
 97
        8
330
E6
330
126
330
E5
330
127
330
128
330
E9
330
E8
330
E7
 75
     1
 76
     0
 52
45.0
 41
0.1
 77
     0
 78
     1
 53
45.0
 43
0.0
 44
0.0
 45
-0.0707106781186548
 46
0.0707106781186548
 79
     0
 98
        1
 10
0.0
 20
0.0
  0
HATCH
  5
1AD
330
47
100
AcDbEntity
  8
1
  6
Continuous
 62
     2
100
AcDbHatch
 10
0.0
 20
0.0
 30
0.0
210
0.0
220
0.0
230
1.0
  2
_USER
 70
     0
 71
     1
 91
        2
 92
        1
 93
        8
 72
     1
 10
98.42934155939693
 20
337.0489916642779
 11
98.21786150592115
 21
337.5899522084958
 72
     1
 10
98.21786150592115
 20
337.5899522084958
 11
97.08541992924734
 21
337.5899522084958
 72
     1
 10
97.08541992924734
 20
337.5899522084958
 11
96.87393987577153
 21
337.0489916642779
 72
     1
 10
96.87393987577153
 20
337.0489916642779
 11
95.63343546551855
 21
337.0489916642779
 72
     1
 10
95.63343546551855
 20
337.0489916642779
 11
97.03138851245785
 21
340.102801188089
 72
     1
 10
97.03138851245785
 20
340.102801188089
 11
98.27189292271055
 21
340.102801188089
 72
     1
 10
98.27189292271055
 20
340.102801188089
 11
99.66984596965085
 21
337.0489916642779
 72
     1
 10
99.66984596965085
 20
337.0489916642779
 11
98.42934155939693
 21
337.0489916642779
 97
        8
330
12A
330
12B
330
E2
330
12C
330
E1
330
E4
330
129
330
E3
 92
       16
 93
        3
 72
     1
 10
97.35147548039234
 20
338.2705154738025
 11
97.65164071758474
 21
339.0383304397891
 72
     1
 10
97.65164071758474
 20
339.0383304397891
 11
97.95180595477484
 21
338.2705154738025
 72
     1
 10
97.95180595477484
 20
338.2705154738025
 11
97.35147548039234
 21
338.2705154738025
 97
        3
330
E0
330
12E
330
12D
 75
     1
 76
     0
 52
45.0
 41
0.1
 77
     0
 78
     1
 53
45.0
 43
0.0
 44
0.0
 45
-0.0707106781186548
 46
0.0707106781186548
 79
     0
 98
        1
 10
0.0
 20
0.0
  0
HATCH
  5
1AE
330
47
100
AcDbEntity
  8
1
  6
Continuous
 62
     2
100
AcDbHatch
 10
0.0
 20
0.0
 30
0.0
210
0.0
220
0.0
230
1.0
  2
_USER
 70
     0
 71
     1
 91
        2
 92
        1
 93
        8
 72
     1
 10
98.42934155939693
 20
337.0489916642779
 11
98.21786150592115
 21
337.5899522084958
 72
     1
 10
98.21786150592115
 20
337.5899522084958
 11
97.08541992924734
 21
337.5899522084958
 72
     1
 10
97.08541992924734
 20
337.5899522084958
 11
96.87393987577153
 21
337.0489916642779
 72
     1
 10
96.87393987577153
 20
337.0489916642779
 11
95.63343546551855
 21
337.0489916642779
 72
     1
 10
95.63343546551855
 20
337.0489916642779
 11
97.03138851245785
 21
340.102801188089
 72
     1
 10
97.03138851245785
 20
340.102801188089
 11
98.27189292271055
 21
340.102801188089
 72
     1
 10
98.27189292271055
 20
340.102801188089
 11
99.66984596965085
 21
337.0489916642779
 72
     1
 10
99.66984596965085
 20
337.0489916642779
 11
98.42934155939693
 21
337.0489916642779
 97
        8
330
12A
330
12B
330
E2
330
12C
330
E1
330
E4
330
129
330
E3
 92
       16
 93
        3
 72
     1
 10
97.35147548039234
 20
338.2705154738025
 11
97.65164071758474
 21
339.0383304397891
 72
     1
 10
97.65164071758474
 20
339.0383304397891
 11
97.95180595477484
 21
338.2705154738025
 72
     1
 10
97.95180595477484
 20
338.2705154738025
 11
97.35147548039234
 21
338.2705154738025
 97
        3
330
E0
330
12E
330
12D
 75
     1
 76
     0
 52
45.0
 41
0.1
 77
     0
 78
     1
 53
45.0
 43
0.0
 44
0.0
 45
-0.0707106781186548
 46
0.0707106781186548
 79
     0
 98
        1
 10
0.0
 20
0.0
  0
HATCH
  5
1AF
330
47
100
AcDbEntity
  8
1
  6
Continuous
 62
     2
100
AcDbHatch
 10
0.0
 20
0.0
 30
0.0
210
0.0
220
0.0
230
1.0
  2
_USER
 70
     0
 71
     1
 91
        1
 92
        1
 93
        4
 72
     1
 10
100.0602899731829
 20
340.4081821404523
 11
98.81978556292995
 21
340.4081821404523
 72
     1
 10
98.81978556292995
 20
340.4081821404523
 11
98.81978556292995
 21
343.4619916642635
 72
     1
 10
98.81978556292995
 20
343.4619916642635
 11
100.0602899731829
 21
343.4619916642635
 72
     1
 10
100.0602899731829
 20
343.4619916642635
 11
100.0602899731829
 21
340.4081821404523
 97
        4
330
DD
330
DF
330
12F
330
DE
 75
     1
 76
     0
 52
45.0
 41
0.1
 77
     0
 78
     1
 53
45.0
 43
0.0
 44
0.0
 45
-0.0707106781186548
 46
0.0707106781186548
 79
     0
 98
        1
 10
0.0
 20
0.0
  0
HATCH
  5
1B0
330
47
100
AcDbEntity
  8
1
  6
Continuous
 62
     2
100
AcDbHatch
 10
0.0
 20
0.0
 30
0.0
210
0.0
220
0.0
230
1.0
  2
_USER
 70
     0
 71
     1
 91
        1
 92
        1
 93
        4
 72
     1
 10
100.0602899731829
 20
340.4081821404523
 11
98.81978556292995
 21
340.4081821404523
 72
     1
 10
98.81978556292995
 20
340.4081821404523
 11
98.81978556292995
 21
343.4619916642635
 72
     1
 10
98.81978556292995
 20
343.4619916642635
 11
100.0602899731829
 21
343.4619916642635
 72
     1
 10
100.0602899731829
 20
343.4619916642635
 11
100.0602899731829
 21
340.4081821404523
 97
        4
330
DD
330
DF
330
12F
330
DE
 75
     1
 76
     0
 52
45.0
 41
0.1
 77
     0
 78
     1
 53
45.0
 43
0.0
 44
0.0
 45
-0.0707106781186548
 46
0.0707106781186548
 79
     0
 98
        1
 10
0.0
 20
0.0
  0
HATCH
  5
1B1
330
47
100
AcDbEntity
  8
1
  6
Continuous
 62
     2
100
AcDbHatch
 10
0.0
 20
0.0
 30
0.0
210
0.0
220
0.0
230
1.0
  2
_USER
 70
     0
 71
     1
 91
        1
 92
        1
 93
       12
 72
     1
 10
104.2827761388537
 20
343.4619916642635
 11
102.9802465080871
 21
341.9890411342273
 72
     1
 10
102.9802465080871
 20
341.9890411342273
 11
104.3781995550274
 21
340.4081821404523
 72
     1
 10
104.3781995550274
 20
340.4081821404523
 11
102.9754753372791
 21
340.4081821404523
 72
     1
 10
102.9754753372791
 20
340.4081821404523
 11
102.2788843992136
 21
341.1959139257459
 72
     1
 10
102.2788843992136
 20
341.1959139257459
 11
101.5822934611479
 21
340.4081821404523
 72
     1
 10
101.5822934611479
 20
340.4081821404523
 11
100.1795692433997
 21
340.4081821404523
 72
     1
 10
100.1795692433997
 20
340.4081821404523
 11
101.57752229034
 21
341.9890411342273
 72
     1
 10
101.57752229034
 20
341.9890411342273
 11
100.2749926595726
 21
343.4619916642635
 72
     1
 10
100.2749926595726
 20
343.4619916642635
 11
101.6777168773218
 21
343.4619916642635
 72
     1
 10
101.6777168773218
 20
343.4619916642635
 11
102.2788843992136
 21
342.7821683427079
 72
     1
 10
102.2788843992136
 20
342.7821683427079
 11
102.8800519211064
 21
343.4619916642635
 72
     1
 10
102.8800519211064
 20
343.4619916642635
 11
104.2827761388537
 21
343.4619916642635
 97
       12
330
D8
330
D7
330
D6
330
133
330
134
330
130
330
131
330
DC
330
DB
330
DA
330
D9
330
132
 75
     1
 76
     0
 52
45.0
 41
0.1
 77
     0
 78
     1
 53
45.0
 43
0.0
 44
0.0
 45
-0.0707106781186548
 46
0.0707106781186548
 79
     0
 98
        1
 10
0.0
 20
0.0
  0
HATCH
  5
1B2
330
47
100
AcDbEntity
  8
1
  6
Continuous
 62
     2
100
AcDbHatch
 10
0.0
 20
0.0
 30
0.0
210
0.0
220
0.0
230
1.0
  2
_USER
 70
     0
 71
     1
 91
        1
 92
        1
 93
       12
 72
     1
 10
104.2827761388537
 20
343.4619916642635
 11
102.9802465080871
 21
341.9890411342273
 72
     1
 10
102.9802465080871
 20
341.9890411342273
 11
104.3781995550274
 21
340.4081821404523
 72
     1
 10
104.3781995550274
 20
340.4081821404523
 11
102.9754753372791
 21
340.4081821404523
 72
     1
 10
102.9754753372791
 20
340.4081821404523
 11
102.2788843992136
 21
341.1959139257459
 72
     1
 10
102.2788843992136
 20
341.1959139257459
 11
101.5822934611479
 21
340.4081821404523
 72
     1
 10
101.5822934611479
 20
340.4081821404523
 11
100.1795692433997
 21
340.4081821404523
 72
     1
 10
100.1795692433997
 20
340.4081821404523
 11
101.57752229034
 21
341.9890411342273
 72
     1
 10
101.57752229034
 20
341.9890411342273
 11
100.2749926595726
 21
343.4619916642635
 72
     1
 10
100.2749926595726
 20
343.4619916642635
 11
101.6777168773218
 21
343.4619916642635
 72
     1
 10
101.6777168773218
 20
343.4619916642635
 11
102.2788843992136
 21
342.7821683427079
 72
     1
 10
102.2788843992136
 20
342.7821683427079
 11
102.8800519211064
 21
343.4619916642635
 72
     1
 10
102.8800519211064
 20
343.4619916642635
 11
104.2827761388537
 21
343.4619916642635
 97
       12
330
D8
330
D7
330
D6
330
133
330
134
330
130
330
131
330
DC
330
DB
330
DA
330
D9
330
132
 75
     1
 76
     0
 52
45.0
 41
0.1
 77
     0
 78
     1
 53
45.0
 43
0.0
 44
0.0
 45
-0.0707106781186548
 46
0.0707106781186548
 79
     0
 98
        1
 10
0.0
 20
0.0
  0
HATCH
  5
1B3
330
47
100
AcDbEntity
  8
1
  6
Continuous
 62
     2
100
AcDbHatch
 10
0.0
 20
0.0
 30
0.0
210
0.0
220
0.0
230
1.0
  2
_USER
 70
     0
 71
     1
 91
        2
 92
        1
 93
        6
 72
     1
 10
85.26504072470763
 20
341.351260381596
 11
84.50627313692735
 21
341.351260381596
 72
     1
 10
84.50627313692735
 20
341.351260381596
 11
84.50627313692735
 21
340.4081821404523
 72
     1
 10
84.50627313692735
 20
340.4081821404523
 11
83.26576872667323
 21
340.4081821404523
 72
     1
 10
83.26576872667323
 20
340.4081821404523
 11
83.26576872667323
 21
343.4619916642635
 72
     1
 10
83.26576872667323
 20
343.4619916642635
 11
85.26504072470763
 21
343.4619916642635
 72
     2
 10
85.26504072470763
 20
342.4066260229297
 40
1.055365641333708
 50
270.0
 51
450.0
 73
     0
 97
        6
330
100
330
FF
330
10C
330
10B
330
101
330
151
 92
       16
 93
        4
 72
     2
 10
84.82356819846925
 20
342.4460219941523
 40
0.3528638246712035
 50
270.0
 51
450.0
 73
     1
 72
     1
 10
84.82356819846925
 20
342.7988858188234
 11
84.50627313692735
 21
342.7988858188234
 72
     1
 10
84.50627313692735
 20
342.7988858188234
 11
84.50627313692735
 21
342.0931581694811
 72
     1
 10
84.50627313692735
 20
342.0931581694811
 11
84.82356819846925
 21
342.0931581694811
 97
        4
330
165
330
FD
330
10D
330
FE
 75
     1
 76
     0
 52
45.0
 41
0.1
 77
     0
 78
     1
 53
45.0
 43
0.0
 44
0.0
 45
-0.0707106781186548
 46
0.0707106781186548
 79
     0
 98
        1
 10
0.0
 20
0.0
  0
HATCH
  5
1B4
330
47
100
AcDbEntity
  8
1
  6
Continuous
 62
     2
100
AcDbHatch
 10
0.0
 20
0.0
 30
0.0
210
0.0
220
0.0
230
1.0
  2
_USER
 70
     0
 71
     1
 91
        2
 92
        1
 93
        6
 72
     1
 10
85.26504072470763
 20
341.351260381596
 11
84.50627313692735
 21
341.351260381596
 72
     1
 10
84.50627313692735
 20
341.351260381596
 11
84.50627313692735
 21
340.4081821404523
 72
     1
 10
84.50627313692735
 20
340.4081821404523
 11
83.26576872667323
 21
340.4081821404523
 72
     1
 10
83.26576872667323
 20
340.4081821404523
 11
83.26576872667323
 21
343.4619916642635
 72
     1
 10
83.26576872667323
 20
343.4619916642635
 11
85.26504072470763
 21
343.4619916642635
 72
     2
 10
85.26504072470763
 20
342.4066260229297
 40
1.055365641333708
 50
270.0
 51
450.0
 73
     0
 97
        6
330
100
330
FF
330
10C
330
10B
330
101
330
151
 92
       16
 93
        4
 72
     2
 10
84.82356819846925
 20
342.4460219941523
 40
0.3528638246712035
 50
270.0
 51
450.0
 73
     1
 72
     1
 10
84.82356819846925
 20
342.7988858188234
 11
84.50627313692735
 21
342.7988858188234
 72
     1
 10
84.50627313692735
 20
342.7988858188234
 11
84.50627313692735
 21
342.0931581694811
 72
     1
 10
84.50627313692735
 20
342.0931581694811
 11
84.82356819846925
 21
342.0931581694811
 97
        4
330
165
330
FD
330
10D
330
FE
 75
     1
 76
     0
 52
45.0
 41
0.1
 77
     0
 78
     1
 53
45.0
 43
0.0
 44
0.0
 45
-0.0707106781186548
 46
0.0707106781186548
 79
     0
 98
        1
 10
0.0
 20
0.0
  0
HATCH
  5
1B5
330
47
100
AcDbEntity
  8
1
  6
Continuous
 62
     2
100
AcDbHatch
 10
0.0
 20
0.0
 30
0.0
210
0.0
220
0.0
230
1.0
  2
_USER
 70
     0
 71
     1
 91
        2
 92
        1
 93
        4
 72
     2
 10
87.82158347306674
 20
338.0373214158805
 40
2.065479772208492
 50
62.45185182430527
 51
117.5481481756675
 73
     1
 72
     2
 10
87.54064358123344
 20
338.5758964261833
 40
1.458034083651415
 50
117.548148175664
 51
242.4518518243391
 73
     1
 72
     2
 10
87.82158347306674
 20
339.1144714364865
 40
2.065479772208483
 50
242.4518518243399
 51
297.5481481756875
 73
     1
 72
     2
 10
88.10252336490004
 20
338.5758964261833
 40
1.458034083652078
 50
297.5481481756995
 51
422.4518518242974
 73
     1
 97
        4
330
15D
330
15C
330
15E
330
15B
 92
       16
 93
        4
 72
     2
 10
87.62184343672033
 20
338.5758964261833
 40
0.7717997786797649
 50
321.8795802028351
 51
398.1204197971483
 73
     1
 72
     2
 10
87.82158347306674
 20
338.7326276043037
 40
0.5179085730133349
 50
38.12041979715197
 51
141.8795802028538
 73
     1
 72
     2
 10
88.02132350941284
 20
338.5758964261833
 40
0.7717997786794106
 50
141.8795802028413
 51
218.1204197971753
 73
     1
 72
     2
 10
87.82158347306674
 20
338.4191652480632
 40
0.5179085730137529
 50
218.1204197971956
 51
321.8795802027985
 73
     1
 97
        4
330
179
330
176
330
177
330
178
 75
     1
 76
     0
 52
45.0
 41
0.1
 77
     0
 78
     1
 53
45.0
 43
0.0
 44
0.0
 45
-0.0707106781186548
 46
0.0707106781186548
 79
     0
 98
        1
 10
0.0
 20
0.0
  0
HATCH
  5
1B6
330
47
100
AcDbEntity
  8
1
  6
Continuous
 62
     2
100
AcDbHatch
 10
0.0
 20
0.0
 30
0.0
210
0.0
220
0.0
230
1.0
  2
_USER
 70
     0
 71
     1
 91
        2
 92
        1
 93
        4
 72
     2
 10
87.82158347306674
 20
338.0373214158805
 40
2.065479772208492
 50
62.45185182430527
 51
117.5481481756675
 73
     1
 72
     2
 10
87.54064358123344
 20
338.5758964261833
 40
1.458034083651415
 50
117.548148175664
 51
242.4518518243391
 73
     1
 72
     2
 10
87.82158347306674
 20
339.1144714364865
 40
2.065479772208483
 50
242.4518518243399
 51
297.5481481756875
 73
     1
 72
     2
 10
88.10252336490004
 20
338.5758964261833
 40
1.458034083652078
 50
297.5481481756995
 51
422.4518518242974
 73
     1
 97
        4
330
15D
330
15C
330
15E
330
15B
 92
       16
 93
        4
 72
     2
 10
87.62184343672033
 20
338.5758964261833
 40
0.7717997786797649
 50
321.8795802028351
 51
398.1204197971483
 73
     1
 72
     2
 10
87.82158347306674
 20
338.7326276043037
 40
0.5179085730133349
 50
38.12041979715197
 51
141.8795802028538
 73
     1
 72
     2
 10
88.02132350941284
 20
338.5758964261833
 40
0.7717997786794106
 50
141.8795802028413
 51
218.1204197971753
 73
     1
 72
     2
 10
87.82158347306674
 20
338.4191652480632
 40
0.5179085730137529
 50
218.1204197971956
 51
321.8795802027985
 73
     1
 97
        4
330
179
330
176
330
177
330
178
 75
     1
 76
     0
 52
45.0
 41
0.1
 77
     0
 78
     1
 53
45.0
 43
0.0
 44
0.0
 45
-0.0707106781186548
 46
0.0707106781186548
 79
     0
 98
        1
 10
0.0
 20
0.0
  0
HATCH
  5
1B7
330
47
100
AcDbEntity
  8
1
  6
Continuous
 62
     2
100
AcDbHatch
 10
0.0
 20
0.0
 30
0.0
210
0.0
220
0.0
230
1.0
  2
_USER
 70
     0
 71
     1
 91
        2
 92
        1
 93
       12
 72
     1
 10
94.71657866747603
 20
342.7639780588204
 11
93.38065084104835
 21
342.7639780588204
 72
     1
 10
93.38065084104835
 20
342.7639780588204
 11
93.38065084104835
 21
342.2840937050787
 72
     1
 10
93.38065084104835
 20
342.2840937050787
 11
94.71657866747603
 21
342.2840937050787
 72
     1
 10
94.71657866747603
 20
342.2840937050787
 11
94.71657866747603
 21
341.5860800996364
 72
     1
 10
94.71657866747603
 20
341.5860800996364
 11
93.38065084104835
 21
341.5860800996364
 72
     1
 10
93.38065084104835
 20
341.5860800996364
 11
93.38065084104835
 21
341.1061957458948
 72
     1
 10
93.38065084104835
 20
341.1061957458948
 11
94.71657866747603
 21
341.1061957458948
 72
     1
 10
94.71657866747603
 20
341.1061957458948
 11
94.71657866747603
 21
340.4081821404523
 72
     1
 10
94.71657866747603
 20
340.4081821404523
 11
91.56625894369503
 21
340.4081821404523
 72
     2
 10
91.56625894369503
 20
341.9350869023575
 40
1.526904761905996
 50
90.0
 51
270.0
 73
     0
 72
     1
 10
91.56625894369503
 20
343.4619916642635
 11
94.71657866747603
 21
343.4619916642635
 72
     1
 10
94.71657866747603
 20
343.4619916642635
 11
94.71657866747603
 21
342.7639780588204
 97
       12
330
114
330
166
330
115
330
116
330
117
330
118
330
F5
330
F4
330
F3
330
F2
330
119
330
113
 92
       16
 93
        4
 72
     2
 10
91.78253095386023
 20
342.091818080478
 40
0.5179085730135967
 50
38.12041979715324
 51
141.879580202839
 73
     1
 72
     2
 10
91.98227099020653
 20
341.9350869023575
 40
0.7717997786797426
 50
141.8795802028338
 51
218.1204197971562
 73
     1
 72
     2
 10
91.78253095386023
 20
341.7783557242371
 40
0.5179085730134372
 50
218.1204197971511
 51
321.8795802028566
 73
     1
 72
     2
 10
91.58279091751405
 20
341.9350869023575
 40
0.7717997786796373
 50
321.8795802028437
 51
398.1204197971662
 73
     1
 97
        4
330
160
330
15F
330
15A
330
159
 75
     1
 76
     0
 52
45.0
 41
0.1
 77
     0
 78
     1
 53
45.0
 43
0.0
 44
0.0
 45
-0.0707106781186548
 46
0.0707106781186548
 79
     0
 98
        1
 10
0.0
 20
0.0
  0
HATCH
  5
1B8
330
47
100
AcDbEntity
  8
1
  6
Continuous
 62
     2
100
AcDbHatch
 10
0.0
 20
0.0
 30
0.0
210
0.0
220
0.0
230
1.0
  2
_USER
 70
     0
 71
     1
 91
        2
 92
        1
 93
       12
 72
     1
 10
94.71657866747603
 20
342.7639780588204
 11
93.38065084104835
 21
342.7639780588204
 72
     1
 10
93.38065084104835
 20
342.7639780588204
 11
93.38065084104835
 21
342.2840937050787
 72
     1
 10
93.38065084104835
 20
342.2840937050787
 11
94.71657866747603
 21
342.2840937050787
 72
     1
 10
94.71657866747603
 20
342.2840937050787
 11
94.71657866747603
 21
341.5860800996364
 72
     1
 10
94.71657866747603
 20
341.5860800996364
 11
93.38065084104835
 21
341.5860800996364
 72
     1
 10
93.38065084104835
 20
341.5860800996364
 11
93.38065084104835
 21
341.1061957458948
 72
     1
 10
93.38065084104835
 20
341.1061957458948
 11
94.71657866747603
 21
341.1061957458948
 72
     1
 10
94.71657866747603
 20
341.1061957458948
 11
94.71657866747603
 21
340.4081821404523
 72
     1
 10
94.71657866747603
 20
340.4081821404523
 11
91.56625894369503
 21
340.4081821404523
 72
     2
 10
91.56625894369503
 20
341.9350869023575
 40
1.526904761905996
 50
90.0
 51
270.0
 73
     0
 72
     1
 10
91.56625894369503
 20
343.4619916642635
 11
94.71657866747603
 21
343.4619916642635
 72
     1
 10
94.71657866747603
 20
343.4619916642635
 11
94.71657866747603
 21
342.7639780588204
 97
       12
330
114
330
166
330
115
330
116
330
117
330
118
330
F5
330
F4
330
F3
330
F2
330
119
330
113
 92
       16
 93
        4
 72
     2
 10
91.78253095386023
 20
342.091818080478
 40
0.5179085730135967
 50
38.12041979715324
 51
141.879580202839
 73
     1
 72
     2
 10
91.98227099020653
 20
341.9350869023575
 40
0.7717997786797426
 50
141.8795802028338
 51
218.1204197971562
 73
     1
 72
     2
 10
91.78253095386023
 20
341.7783557242371
 40
0.5179085730134372
 50
218.1204197971511
 51
321.8795802028566
 73
     1
 72
     2
 10
91.58279091751405
 20
341.9350869023575
 40
0.7717997786796373
 50
321.8795802028437
 51
398.1204197971662
 73
     1
 97
        4
330
160
330
15F
330
15A
330
159
 75
     1
 76
     0
 52
45.0
 41
0.1
 77
     0
 78
     1
 53
45.0
 43
0.0
 44
0.0
 45
-0.0707106781186548
 46
0.0707106781186548
 79
     0
 98
        1
 10
0.0
 20
0.0
  0
HATCH
  5
1B9
330
47
100
AcDbEntity
  8
1
  6
Continuous
 62
     2
100
AcDbHatch
 10
0.0
 20
0.0
 30
0.0
210
0.0
220
0.0
230
1.0
  2
_USER
 70
     0
 71
     1
 91
        4
 92
        1
 93
        8
 72
     1
 10
82.78865164580642
 20
343.0377470488614
 11
82.78865164580642
 21
337.4732362796613
 72
     2
 10
82.36440703042254
 20
337.4732362796613
 40
0.4242446153834294
 50
0.0
 51
90.0
 73
     0
 72
     1
 10
82.36440703042254
 20
337.0489916642779
 11
76.89109493970574
 21
337.0489916642779
 72
     2
 10
76.89109493970574
 20
337.4732362796613
 40
0.4242446153828041
 50
90.0
 51
180.0
 73
     0
 72
     1
 10
76.46685032432293
 20
337.4732362796613
 11
76.46685032432293
 21
343.0377470488614
 72
     2
 10
76.89109493970574
 20
343.0377470488614
 40
0.424244615383941
 50
180.0
 51
270.0
 73
     0
 72
     1
 10
76.89109493970574
 20
343.4619916642453
 11
82.36440703042254
 21
343.4619916642453
 72
     2
 10
82.36440703042254
 20
343.0377470488614
 40
0.4242446153838841
 50
270.0
 51
360.0
 73
     0
 97
        8
330
108
330
156
330
109
330
161
330
106
330
158
330
107
330
157
 92
       16
 93
        1
 72
     2
 10
79.51068059022325
 20
340.7188648205059
 40
0.4709789327785074
 50
0.0
 51
360.0
 73
     1
 97
        1
330
17C
 92
       16
 93
        8
 72
     2
 10
80.06053830298393
 20
339.6097232205375
 40
0.3157169230766355
 50
115.374008678343
 51
180.0
 73
     1
 72
     1
 10
79.74482137990714
 20
339.6097232205375
 11
79.74482137990714
 21
339.0278718138425
 72
     2
 10
80.06053830298393
 20
339.0278718138425
 40
0.315716923076792
 50
180.0
 51
269.8110329574542
 73
     1
 72
     2
 10
80.06615443829395
 20
340.7307067614114
 40
2.018561131933266
 50
269.8110329575858
 51
450.1889670424142
 73
     1
 72
     2
 10
80.06053830298393
 20
342.4335417089806
 40
0.3157169230759573
 50
90.188967042546
 51
180.0
 73
     1
 72
     1
 10
79.74482137990714
 20
342.4335417089806
 11
79.74482137990714
 21
341.8280064204737
 72
     2
 10
80.06053830298393
 20
341.8280064204737
 40
0.315716923076792
 50
180.0
 51
244.6259913216437
 73
     1
 72
     2
 10
79.53449560489605
 20
340.7188648205059
 40
0.9118481501443819
 50
295.3740086781925
 51
424.6259913218212
 73
     0
 97
        8
330
16E
330
CF
330
16B
330
16C
330
14A
330
CE
330
16D
330
149
 92
       16
 93
       12
 72
     2
 10
77.48498961645222
 20
338.0772641429115
 40
0.3157169230756836
 50
180.0
 51
270.0
 73
     1
 72
     1
 10
77.48498961645222
 20
337.7615472198348
 11
78.96082287746185
 21
337.7615472198348
 72
     2
 10
78.96082287746185
 20
338.0772641429115
 40
0.3157169230766499
 50
270.0
 51
360.0
 73
     1
 72
     1
 10
79.27653980053844
 20
338.0772641429115
 11
79.27653980053844
 21
339.6080350744431
 72
     2
 10
78.96082287746185
 20
339.6080350744431
 40
0.315716923076593
 50
0.0
 51
64.80558935146468
 73
     1
 72
     2
 10
79.48340732503684
 20
340.7188648205059
 40
0.9118975235575889
 50
115.1944106485122
 51
244.805589351471
 73
     0
 72
     2
 10
78.96082287746185
 20
341.8296945665682
 40
0.3157169230762231
 50
295.1944106485309
 51
360.0
 73
     1
 72
     1
 10
79.27653980053844
 20
341.8296945665682
 11
79.27653980053844
 21
342.4337191856287
 72
     2
 10
78.96082287746185
 20
342.4337191856287
 40
0.315716923076593
 50
0.0
 51
90.0
 73
     1
 72
     1
 10
78.96082287746185
 20
342.7494361087048
 11
77.48498961645222
 21
342.7494361087048
 72
     2
 10
77.48498961645222
 20
342.4337191856287
 40
0.3157169230760815
 50
90.0
 51
180.0
 73
     1
 72
     1
 10
77.16927269337654
 20
342.4337191856287
 11
77.16927269337654
 21
338.0772641429115
 97
       12
330
152
330
10A
330
155
330
105
330
162
330
163
330
154
330
104
330
153
330
103
330
164
330
102
 75
     1
 76
     0
 52
45.0
 41
0.1
 77
     0
 78
     1
 53
45.0
 43
0.0
 44
0.0
 45
-0.0707106781186548
 46
0.0707106781186548
 79
     0
 98
        1
 10
0.0
 20
0.0
  0
HATCH
  5
1BA
330
47
100
AcDbEntity
  8
1
  6
Continuous
 62
     2
100
AcDbHatch
 10
0.0
 20
0.0
 30
0.0
210
0.0
220
0.0
230
1.0
  2
_USER
 70
     0
 71
     1
 91
        4
 92
        1
 93
        8
 72
     1
 10
82.78865164580642
 20
343.0377470488614
 11
82.78865164580642
 21
337.4732362796613
 72
     2
 10
82.36440703042254
 20
337.4732362796613
 40
0.4242446153834294
 50
0.0
 51
90.0
 73
     0
 72
     1
 10
82.36440703042254
 20
337.0489916642779
 11
76.89109493970574
 21
337.0489916642779
 72
     2
 10
76.89109493970574
 20
337.4732362796613
 40
0.4242446153828041
 50
90.0
 51
180.0
 73
     0
 72
     1
 10
76.46685032432293
 20
337.4732362796613
 11
76.46685032432293
 21
343.0377470488614
 72
     2
 10
76.89109493970574
 20
343.0377470488614
 40
0.424244615383941
 50
180.0
 51
270.0
 73
     0
 72
     1
 10
76.89109493970574
 20
343.4619916642453
 11
82.36440703042254
 21
343.4619916642453
 72
     2
 10
82.36440703042254
 20
343.0377470488614
 40
0.4242446153838841
 50
270.0
 51
360.0
 73
     0
 97
        8
330
108
330
156
330
109
330
161
330
106
330
158
330
107
330
157
 92
       16
 93
        1
 72
     2
 10
79.51068059022325
 20
340.7188648205059
 40
0.4709789327785074
 50
0.0
 51
360.0
 73
     1
 97
        1
330
17C
 92
       16
 93
        8
 72
     2
 10
80.06053830298393
 20
339.6097232205375
 40
0.3157169230766355
 50
115.374008678343
 51
180.0
 73
     1
 72
     1
 10
79.74482137990714
 20
339.6097232205375
 11
79.74482137990714
 21
339.0278718138425
 72
     2
 10
80.06053830298393
 20
339.0278718138425
 40
0.315716923076792
 50
180.0
 51
269.8110329574542
 73
     1
 72
     2
 10
80.06615443829395
 20
340.7307067614114
 40
2.018561131933266
 50
269.8110329575858
 51
450.1889670424142
 73
     1
 72
     2
 10
80.06053830298393
 20
342.4335417089806
 40
0.3157169230759573
 50
90.188967042546
 51
180.0
 73
     1
 72
     1
 10
79.74482137990714
 20
342.4335417089806
 11
79.74482137990714
 21
341.8280064204737
 72
     2
 10
80.06053830298393
 20
341.8280064204737
 40
0.315716923076792
 50
180.0
 51
244.6259913216437
 73
     1
 72
     2
 10
79.53449560489605
 20
340.7188648205059
 40
0.9118481501443819
 50
295.3740086781925
 51
424.6259913218212
 73
     0
 97
        8
330
16E
330
CF
330
16B
330
16C
330
14A
330
CE
330
16D
330
149
 92
       16
 93
       12
 72
     2
 10
77.48498961645222
 20
338.0772641429115
 40
0.3157169230756836
 50
180.0
 51
270.0
 73
     1
 72
     1
 10
77.48498961645222
 20
337.7615472198348
 11
78.96082287746185
 21
337.7615472198348
 72
     2
 10
78.96082287746185
 20
338.0772641429115
 40
0.3157169230766499
 50
270.0
 51
360.0
 73
     1
 72
     1
 10
79.27653980053844
 20
338.0772641429115
 11
79.27653980053844
 21
339.6080350744431
 72
     2
 10
78.96082287746185
 20
339.6080350744431
 40
0.315716923076593
 50
0.0
 51
64.80558935146468
 73
     1
 72
     2
 10
79.48340732503684
 20
340.7188648205059
 40
0.9118975235575889
 50
115.1944106485122
 51
244.805589351471
 73
     0
 72
     2
 10
78.96082287746185
 20
341.8296945665682
 40
0.3157169230762231
 50
295.1944106485309
 51
360.0
 73
     1
 72
     1
 10
79.27653980053844
 20
341.8296945665682
 11
79.27653980053844
 21
342.4337191856287
 72
     2
 10
78.96082287746185
 20
342.4337191856287
 40
0.315716923076593
 50
0.0
 51
90.0
 73
     1
 72
     1
 10
78.96082287746185
 20
342.7494361087048
 11
77.48498961645222
 21
342.7494361087048
 72
     2
 10
77.48498961645222
 20
342.4337191856287
 40
0.3157169230760815
 50
90.0
 51
180.0
 73
     1
 72
     1
 10
77.16927269337654
 20
342.4337191856287
 11
77.16927269337654
 21
338.0772641429115
 97
       12
330
152
330
10A
330
155
330
105
330
162
330
163
330
154
330
104
330
153
330
103
330
164
330
102
 75
     1
 76
     0
 52
45.0
 41
0.1
 77
     0
 78
     1
 53
45.0
 43
0.0
 44
0.0
 45
-0.0707106781186548
 46
0.0707106781186548
 79
     0
 98
        1
 10
0.0
 20
0.0
  0
HATCH
  5
1BB
330
47
100
AcDbEntity
  8
1
  6
Continuous
 62
     2
100
AcDbHatch
 10
0.0
 20
0.0
 30
0.0
210
0.0
220
0.0
230
1.0
  2
_USER
 70
     0
 71
     1
 91
        1
 92
        1
 93
       18
 72
     1
 10
104.3781995550274
 20
339.3175358819655
 11
103.5671005175541
 21
339.3175358819655
 72
     1
 10
103.5671005175541
 20
339.3175358819655
 11
103.5671005175541
 21
337.0489916642779
 72
     1
 10
103.5671005175541
 20
337.0489916642779
 11
102.3743078153864
 21
337.0489916642779
 72
     1
 10
102.3743078153864
 20
337.0489916642779
 11
102.3743078153864
 21
339.3175358819655
 72
     1
 10
102.3743078153864
 20
339.3175358819655
 11
101.2706685158182
 21
339.3175358819655
 72
     2
 10
101.2706685158182
 20
338.3630128751394
 40
0.9545230068260935
 50
90.0
 51
109.3371432194335
 73
     1
 72
     2
 10
101.1239985177145
 20
338.7809678555223
 40
0.5115800601943024
 50
109.337143219488
 51
151.4785267424301
 73
     1
 72
     2
 10
101.5013557757959
 20
338.5758964261833
 40
0.9410597353348518
 50
151.478526742367
 51
208.5214732576695
 73
     1
 72
     2
 10
101.1239985177145
 20
338.3708249968447
 40
0.5115800601959548
 50
208.5214732576762
 51
246.6277221118399
 73
     1
 72
     2
 10
101.2804385504176
 20
338.7328170155547
 40
0.9059297849851757
 50
246.6277221118154
 51
288.448076118084
 73
     1
 72
     2
 10
100.8622708167557
 20
339.9863627915913
 40
2.227384008972665
 50
288.4480761181342
 51
301.9309089499428
 73
     1
 72
     1
 10
102.0403258587797
 20
338.0960120724416
 11
102.0403258587797
 21
337.2234950656382
 72
     2
 10
100.7043979416629
 20
341.8885773714396
 40
4.852596863498889
 50
74.02000874166058
 51
84.84185523036268
 73
     0
 72
     2
 10
100.9932540363988
 20
338.688686788218
 40
1.639695123940475
 50
84.84185523032329
 51
164.9381082229011
 73
     0
 72
     2
 10
100.5741261929371
 20
338.5758964261833
 40
1.205656168392932
 50
164.9381082228996
 51
195.0618917770925
 73
     0
 72
     2
 10
100.9932540363988
 20
338.4631060641483
 40
1.639695123940214
 50
195.0618917771046
 51
270.0
 73
     0
 72
     1
 10
100.9932540363988
 20
340.1028011880885
 11
104.3781995550274
 21
340.102801188089
 72
     1
 10
104.3781995550274
 20
340.102801188089
 11
104.3781995550274
 21
339.3175358819655
 97
       18
330
D1
330
167
330
168
330
150
330
14F
330
135
330
14E
330
14D
330
169
330
14C
330
16A
330
14B
330
136
330
D0
330
D5
330
D4
330
D3
330
D2
 75
     1
 76
     0
 52
45.0
 41
0.1
 77
     0
 78
     1
 53
45.0
 43
0.0
 44
0.0
 45
-0.0707106781186548
 46
0.0707106781186548
 79
     0
 98
        1
 10
0.0
 20
0.0
  0
HATCH
  5
1BC
330
47
100
AcDbEntity
  8
1
  6
Continuous
 62
     2
100
AcDbHatch
 10
0.0
 20
0.0
 30
0.0
210
0.0
220
0.0
230
1.0
  2
_USER
 70
     0
 71
     1
 91
        1
 92
        1
 93
       18
 72
     1
 10
104.3781995550274
 20
339.3175358819655
 11
103.5671005175541
 21
339.3175358819655
 72
     1
 10
103.5671005175541
 20
339.3175358819655
 11
103.5671005175541
 21
337.0489916642779
 72
     1
 10
103.5671005175541
 20
337.0489916642779
 11
102.3743078153864
 21
337.0489916642779
 72
     1
 10
102.3743078153864
 20
337.0489916642779
 11
102.3743078153864
 21
339.3175358819655
 72
     1
 10
102.3743078153864
 20
339.3175358819655
 11
101.2706685158182
 21
339.3175358819655
 72
     2
 10
101.2706685158182
 20
338.3630128751394
 40
0.9545230068260935
 50
90.0
 51
109.3371432194335
 73
     1
 72
     2
 10
101.1239985177145
 20
338.7809678555223
 40
0.5115800601943024
 50
109.337143219488
 51
151.4785267424301
 73
     1
 72
     2
 10
101.5013557757959
 20
338.5758964261833
 40
0.9410597353348518
 50
151.478526742367
 51
208.5214732576695
 73
     1
 72
     2
 10
101.1239985177145
 20
338.3708249968447
 40
0.5115800601959548
 50
208.5214732576762
 51
246.6277221118399
 73
     1
 72
     2
 10
101.2804385504176
 20
338.7328170155547
 40
0.9059297849851757
 50
246.6277221118154
 51
288.448076118084
 73
     1
 72
     2
 10
100.8622708167557
 20
339.9863627915913
 40
2.227384008972665
 50
288.4480761181342
 51
301.9309089499428
 73
     1
 72
     1
 10
102.0403258587797
 20
338.0960120724416
 11
102.0403258587797
 21
337.2234950656382
 72
     2
 10
100.7043979416629
 20
341.8885773714396
 40
4.852596863498889
 50
74.02000874166058
 51
84.84185523036268
 73
     0
 72
     2
 10
100.9932540363988
 20
338.688686788218
 40
1.639695123940475
 50
84.84185523032329
 51
164.9381082229011
 73
     0
 72
     2
 10
100.5741261929371
 20
338.5758964261833
 40
1.205656168392932
 50
164.9381082228996
 51
195.0618917770925
 73
     0
 72
     2
 10
100.9932540363988
 20
338.4631060641483
 40
1.639695123940214
 50
195.0618917771046
 51
270.0
 73
     0
 72
     1
 10
100.9932540363988
 20
340.1028011880885
 11
104.3781995550274
 21
340.102801188089
 72
     1
 10
104.3781995550274
 20
340.102801188089
 11
104.3781995550274
 21
339.3175358819655
 97
       18
330
D1
330
167
330
168
330
150
330
14F
330
135
330
14E
330
14D
330
169
330
14C
330
16A
330
14B
330
136
330
D0
330
D5
330
D4
330
D3
330
D2
 75
     1
 76
     0
 52
45.0
 41
0.1
 77
     0
 78
     1
 53
45.0
 43
0.0
 44
0.0
 45
-0.0707106781186548
 46
0.0707106781186548
 79
     0
 98
        1
 10
0.0
 20
0.0
  0
HATCH
  5
1BD
330
47
100
AcDbEntity
  8
1
  6
Continuous
 62
     2
100
AcDbHatch
 10
0.0
 20
0.0
 30
0.0
210
0.0
220
0.0
230
1.0
  2
_USER
 70
     0
 71
     1
 91
        1
 92
        1
 93
       14
 72
     2
 10
84.89055255714584
 20
338.4631060641483
 40
1.63969512394062
 50
84.84185523036271
 51
164.9381082228864
 73
     1
 72
     2
 10
84.47142471368304
 20
338.5758964261833
 40
1.205656168390914
 50
164.9381082228817
 51
195.0618917770948
 73
     1
 72
     2
 10
84.89055255714584
 20
338.688686788218
 40
1.63969512393935
 50
195.0618917770848
 51
275.1581447696396
 73
     1
 72
     2
 10
84.60169646240993
 20
341.8885773714396
 40
4.852596863498166
 50
275.1581447696249
 51
285.9799912583529
 73
     1
 72
     1
 10
85.93762437952773
 20
337.2234950656388
 11
85.93762437952773
 21
338.096012072442
 72
     2
 10
84.75956933750285
 20
339.9863627915919
 40
2.227384008972764
 50
58.06909105004036
 51
71.55192388186742
 73
     0
 72
     2
 10
85.17773707116365
 20
338.7328170155547
 40
0.9059297849848149
 50
71.55192388184209
 51
113.3722778881318
 73
     0
 72
     2
 10
85.02129703846163
 20
338.3708249968447
 40
0.5115800601948034
 50
113.3722778881777
 51
151.4785267423044
 73
     0
 72
     2
 10
85.39865429654193
 20
338.5758964261833
 40
0.9410597353332545
 50
151.4785267422882
 51
208.5214732577331
 73
     0
 72
     2
 10
85.02129703846163
 20
338.7809678555223
 40
0.5115800601947474
 50
208.5214732576956
 51
246.6277221117946
 73
     0
 72
     2
 10
85.17773707116365
 20
338.4189758368116
 40
0.9059297849853228
 50
246.6277221118696
 51
288.4480761181465
 73
     0
 72
     2
 10
84.75956933750285
 20
337.1654300607751
 40
2.227384008973357
 50
288.4480761181335
 51
301.9309089499612
 73
     0
 72
     1
 10
85.93762437952773
 20
339.0557807799249
 11
85.93762437952773
 21
339.9282977867282
 72
     2
 10
84.60169646240993
 20
335.2632154809273
 40
4.852596863498095
 50
74.02000874164747
 51
84.8418552303752
 73
     1
 97
       14
330
16F
330
170
330
171
330
172
330
137
330
148
330
147
330
146
330
173
330
174
330
145
330
175
330
138
330
144
 75
     1
 76
     0
 52
45.0
 41
0.1
 77
     0
 78
     1
 53
45.0
 43
0.0
 44
0.0
 45
-0.0707106781186548
 46
0.0707106781186548
 79
     0
 98
        1
 10
0.0
 20
0.0
  0
HATCH
  5
1BE
330
47
100
AcDbEntity
  8
1
  6
Continuous
 62
     2
100
AcDbHatch
 10
0.0
 20
0.0
 30
0.0
210
0.0
220
0.0
230
1.0
  2
_USER
 70
     0
 71
     1
 91
        1
 92
        1
 93
       14
 72
     2
 10
84.89055255714584
 20
338.4631060641483
 40
1.63969512394062
 50
84.84185523036271
 51
164.9381082228864
 73
     1
 72
     2
 10
84.47142471368304
 20
338.5758964261833
 40
1.205656168390914
 50
164.9381082228817
 51
195.0618917770948
 73
     1
 72
     2
 10
84.89055255714584
 20
338.688686788218
 40
1.63969512393935
 50
195.0618917770848
 51
275.1581447696396
 73
     1
 72
     2
 10
84.60169646240993
 20
341.8885773714396
 40
4.852596863498166
 50
275.1581447696249
 51
285.9799912583529
 73
     1
 72
     1
 10
85.93762437952773
 20
337.2234950656388
 11
85.93762437952773
 21
338.096012072442
 72
     2
 10
84.75956933750285
 20
339.9863627915919
 40
2.227384008972764
 50
58.06909105004036
 51
71.55192388186742
 73
     0
 72
     2
 10
85.17773707116365
 20
338.7328170155547
 40
0.9059297849848149
 50
71.55192388184209
 51
113.3722778881318
 73
     0
 72
     2
 10
85.02129703846163
 20
338.3708249968447
 40
0.5115800601948034
 50
113.3722778881777
 51
151.4785267423044
 73
     0
 72
     2
 10
85.39865429654193
 20
338.5758964261833
 40
0.9410597353332545
 50
151.4785267422882
 51
208.5214732577331
 73
     0
 72
     2
 10
85.02129703846163
 20
338.7809678555223
 40
0.5115800601947474
 50
208.5214732576956
 51
246.6277221117946
 73
     0
 72
     2
 10
85.17773707116365
 20
338.4189758368116
 40
0.9059297849853228
 50
246.6277221118696
 51
288.4480761181465
 73
     0
 72
     2
 10
84.75956933750285
 20
337.1654300607751
 40
2.227384008973357
 50
288.4480761181335
 51
301.9309089499612
 73
     0
 72
     1
 10
85.93762437952773
 20
339.0557807799249
 11
85.93762437952773
 21
339.9282977867282
 72
     2
 10
84.60169646240993
 20
335.2632154809273
 40
4.852596863498095
 50
74.02000874164747
 51
84.8418552303752
 73
     1
 97
       14
330
16F
330
170
330
171
330
172
330
137
330
148
330
147
330
146
330
173
330
174
330
145
330
175
330
138
330
144
 75
     1
 76
     0
 52
45.0
 41
0.1
 77
     0
 78
     1
 53
45.0
 43
0.0
 44
0.0
 45
-0.0707106781186548
 46
0.0707106781186548
 79
     0
 98
        1
 10
0.0
 20
0.0
  0
ENDBLK
  5
49
330
47
100
AcDbEntity
  8
0
100
AcDbBlockEnd
  0
BLOCK
  5
4B
330
4A
100
AcDbEntity
  8
0
100
AcDbBlockBegin
  2
_punkt
 70
     0
 10
201.7749999645104
 20
329.7554916642616
 30
0.0
  3
_punkt
  1

  0
LINE
  5
1BF
330
4A
100
AcDbEntity
  8
1
  6
Continuous
 62
     2
100
AcDbLine
 10
201.7749999645104
 20
329.7554916642616
 30
0.0
 11
206.7749999645093
 21
329.7554916642616
 31
0.0
  0
LINE
  5
1C0
330
4A
100
AcDbEntity
  8
1
  6
Continuous
 62
     2
100
AcDbLine
 10
201.7749999645104
 20
329.7554916642616
 30
0.0
 11
201.7749999645104
 21
324.7554916642615
 31
0.0
  0
ENDBLK
  5
4C
330
4A
100
AcDbEntity
  8
0
100
AcDbBlockEnd
  0
BLOCK
  5
50
330
4D
100
AcDbEntity
  8
0
100
AcDbBlockBegin
  2
A4I_CS
 70
     0
 10
201.7749999645104
 20
324.7554916642615
 30
0.0
  3
A4I_CS
  1

  0
INSERT
  5
4E
330
4D
100
AcDbEntity
  8
1
100
AcDbBlockReference
  2
_rahmen
 10
201.7749999645104
 20
324.7554916642615
 30
0.0
  0
INSERT
  5
4F
330
4D
100
AcDbEntity
  8
1
100
AcDbBlockReference
  2
_punkt
 10
201.7749999645104
 20
329.7554916642616
 30
0.0
  0
ENDBLK
  5
51
330
4D
100
AcDbEntity
  8
0
100
AcDbBlockEnd
  0
BLOCK
  5
53
330
52
100
AcDbEntity
  8
0
100
AcDbBlockBegin
  2
d_sttb_25_select__1
 70
     0
 10
103.7499893172543
 20
375.1872188004025
 30
0.0
  3
d_sttb_25_select__1
  1

  0
LINE
  5
1C1
330
52
100
AcDbEntity
  8
0
  6
Continuous
 62
     7
100
AcDbLine
 10
105.9723608381633
 20
416.5851483545069
 30
0.0
 11
104.8723608381633
 21
415.632520410344
 31
0.0
  0
LINE
  5
1C2
330
52
100
AcDbEntity
  8
0
  6
Continuous
 62
     7
100
AcDbLine
 10
105.9723608381633
 20
416.5851483545069
 30
0.0
 11
115.3547297279657
 21
413.8766917524195
 31
0.0
  0
LINE
  5
1C3
330
52
100
AcDbEntity
  8
0
  6
Continuous
 62
     7
100
AcDbLine
 10
103.7499893172543
 20
409.5912359588198
 30
0.0
 11
104.8723608381633
 21
415.632520410344
 31
0.0
  0
LINE
  5
1C4
330
52
100
AcDbEntity
  8
0
  6
Continuous
 62
     7
100
AcDbLine
 10
116.47710151626
 20
421.4623896132661
 30
0.0
 11
115.3547297279657
 21
415.421103722512
 31
0.0
  0
LINE
  5
1C5
330
52
100
AcDbEntity
  8
0
  6
Continuous
 62
     7
100
AcDbLine
 10
115.3547297279657
 20
415.421103722512
 30
0.0
 11
115.3547297279657
 21
412.6065211602016
 31
0.0
  0
LINE
  5
1C6
330
52
100
AcDbEntity
  8
0
  6
Continuous
 62
     7
100
AcDbLine
 10
103.7499893172543
 20
409.5912359588198
 30
0.0
 11
103.7499893172543
 21
405.5209150446074
 31
0.0
  0
LINE
  5
1C7
330
52
100
AcDbEntity
  8
0
  6
Continuous
 62
     7
100
AcDbLine
 10
103.7499893172543
 20
397.7266864105438
 30
0.0
 11
103.7499893172543
 21
390.7984831802711
 31
0.0
  0
LINE
  5
1C8
330
52
100
AcDbEntity
  8
0
  6
Continuous
 62
     7
100
AcDbLine
 10
104.8723608381633
 20
415.632520410344
 30
0.0
 11
115.3547297279657
 21
412.6065211602016
 31
0.0
  0
LINE
  5
1C9
330
52
100
AcDbEntity
  8
0
  6
Continuous
 62
     7
100
AcDbLine
 10
117.5771015162601
 20
422.4150175574289
 30
0.0
 11
116.47710151626
 21
421.4623896132661
 31
0.0
  0
LINE
  5
1CA
330
52
100
AcDbEntity
  8
0
  6
Continuous
 62
     7
100
AcDbLine
 10
146.2285353728984
 20
403.6940211602027
 30
0.0
 11
147.3285353728984
 21
404.6466491043656
 31
0.0
  0
LINE
  5
1CB
330
52
100
AcDbEntity
  8
0
  6
Continuous
 62
     7
100
AcDbLine
 10
161.1276332872252
 20
399.3930220644432
 30
0.0
 11
146.2285353728984
 21
403.6940211602027
 31
0.0
  0
LINE
  5
1CC
330
52
100
AcDbEntity
  8
0
  6
Continuous
 62
     7
100
AcDbLine
 10
147.3285353728984
 20
404.6466491043656
 30
0.0
 11
162.2276332872252
 21
400.3456500086061
 31
0.0
  0
LINE
  5
1CD
330
52
100
AcDbEntity
  8
0
  6
Continuous
 62
     7
100
AcDbLine
 10
157.8289954698997
 20
375.1872188004025
 30
0.0
 11
162.2500053428931
 21
376.5089428811264
 31
0.0
  0
LINE
  5
1CE
330
52
100
AcDbEntity
  8
0
  6
Continuous
 62
     7
100
AcDbLine
 10
163.3500053428931
 20
377.4615708252893
 30
0.0
 11
162.2500053428931
 21
376.5089428811264
 31
0.0
  0
LINE
  5
1CF
330
52
100
AcDbEntity
  8
0
  6
Continuous
 62
     7
100
AcDbLine
 10
163.3500053428931
 20
379.1937381433552
 30
0.0
 11
162.2500053428931
 21
378.2411101991923
 31
0.0
  0
LINE
  5
1D0
330
52
100
AcDbEntity
  8
0
  6
Continuous
 62
     7
100
AcDbLine
 10
163.3500053428931
 20
389.5860429887685
 30
0.0
 11
162.2500053428931
 21
388.6334150446056
 31
0.0
  0
LINE
  5
1D1
330
52
100
AcDbEntity
  8
0
  6
Continuous
 62
     7
100
AcDbLine
 10
162.2500053428931
 20
388.6334150446056
 30
0.0
 11
162.2500053428931
 21
392.7037329260514
 31
0.0
  0
LINE
  5
1D2
330
52
100
AcDbEntity
  8
0
  6
Continuous
 62
     7
100
AcDbLine
 10
163.3500053428931
 20
393.6563608702143
 30
0.0
 11
162.2500053428931
 21
392.7037329260514
 31
0.0
  0
LINE
  5
1D3
330
52
100
AcDbEntity
  8
0
  6
Continuous
 62
     7
100
AcDbLine
 10
162.2276332872252
 20
400.3456500086061
 30
0.0
 11
163.3500053428931
 21
393.6563608702143
 31
0.0
  0
LINE
  5
1D4
330
52
100
AcDbEntity
  8
0
  6
Continuous
 62
     7
100
AcDbLine
 10
163.3500053428931
 20
393.6563608702143
 30
0.0
 11
163.3500053428931
 21
389.5860429887685
 31
0.0
  0
LINE
  5
1D5
330
52
100
AcDbEntity
  8
0
  6
Continuous
 62
     7
100
AcDbLine
 10
163.3500053428931
 20
379.1937381433552
 30
0.0
 11
163.3500053428931
 21
377.4615708252893
 31
0.0
  0
LINE
  5
1D6
330
52
100
AcDbEntity
  8
0
  6
Continuous
 62
     7
100
AcDbLine
 10
146.2285353728984
 20
403.6940211602027
 30
0.0
 11
146.2285353728984
 21
406.5086037224106
 31
0.0
  0
LINE
  5
1D7
330
52
100
AcDbEntity
  8
0
  6
Continuous
 62
     7
100
AcDbLine
 10
146.2285353728984
 20
406.5086037224106
 30
0.0
 11
145.1061635845871
 21
413.1978912673685
 31
0.0
  0
LINE
  5
1D8
330
52
100
AcDbEntity
  8
0
  6
Continuous
 62
     7
100
AcDbLine
 10
147.3285353728984
 20
407.4612316665735
 30
0.0
 11
147.3285353728984
 21
404.6466491043656
 31
0.0
  0
LINE
  5
1D9
330
52
100
AcDbEntity
  8
0
  6
Continuous
 62
     7
100
AcDbLine
 10
146.2061635845871
 20
414.1505192115314
 30
0.0
 11
147.3285353728984
 21
407.4612316665735
 31
0.0
  0
LINE
  5
1DA
330
52
100
AcDbEntity
  8
0
  6
Continuous
 62
     7
100
AcDbLine
 10
146.2061635845871
 20
414.1505192115314
 30
0.0
 11
145.1061635845871
 21
413.1978912673685
 31
0.0
  0
LINE
  5
1DB
330
52
100
AcDbEntity
  8
0
  6
Continuous
 62
     7
100
AcDbLine
 10
147.3285353728984
 20
407.4612316665735
 30
0.0
 11
146.2285353728984
 21
406.5086037224106
 31
0.0
  0
LINE
  5
1DC
330
52
100
AcDbEntity
  8
0
  6
Continuous
 62
     7
100
AcDbLine
 10
145.1061635845871
 20
413.1978912673685
 30
0.0
 11
116.47710151626
 21
421.4623896132661
 31
0.0
  0
LINE
  5
1DD
330
52
100
AcDbEntity
  8
0
  6
Continuous
 62
     7
100
AcDbLine
 10
117.5771015162601
 20
422.4150175574289
 30
0.0
 11
146.2061635845871
 21
414.1505192115314
 31
0.0
  0
LINE
  5
1DE
330
52
100
AcDbEntity
  8
0
  6
Continuous
 62
     7
100
AcDbLine
 10
162.2500053428931
 20
376.5089428811264
 30
0.0
 11
162.2500053428931
 21
378.2411101991923
 31
0.0
  0
LINE
  5
1DF
330
52
100
AcDbEntity
  8
0
  6
Continuous
 62
     7
100
AcDbLine
 10
162.2500053428931
 20
392.7037329260514
 30
0.0
 11
161.1276332872252
 21
399.3930220644432
 31
0.0
  0
LINE
  5
1E0
330
52
100
AcDbEntity
  8
0
  6
Continuous
 62
     7
100
AcDbLine
 10
162.2276332872252
 20
400.3456500086061
 30
0.0
 11
161.1276332872252
 21
399.3930220644432
 31
0.0
  0
LINE
  5
1E1
330
52
100
AcDbEntity
  8
0
  6
Continuous
 62
     7
100
AcDbLine
 10
103.7499893172543
 20
390.7984831802711
 30
0.0
 11
157.8289954698997
 21
375.1872188004025
 31
0.0
  0
SPLINE
  5
1E2
330
52
100
AcDbEntity
  8
0
  6
Continuous
 62
     7
100
AcDbSpline
210
0.0
220
0.0
230
1.0
 70
     8
 71
     3
 72
    11
 73
     7
 74
     5
 42
0.000000001
 43
0.0000000001
 44
0.00000001
 40
0.0
 40
0.0
 40
0.0
 40
0.0
 40
2.103260637709209
 40
4.123694499701255
 40
6.057513244800504
 40
7.908935340364556
 40
7.908935340364556
 40
7.908935340364556
 40
7.908935340364556
 10
103.7499893172543
 20
405.5209150446074
 30
0.0
 10
103.9200552471594
 20
404.8394288505268
 30
0.0
 10
104.2534898660889
 20
403.5032935061874
 30
0.0
 10
104.3914508714544
 20
401.4809452928002
 30
0.0
 10
104.2701176063455
 20
399.5373022508173
 30
0.0
 10
103.9208310093886
 20
398.3214025049239
 30
0.0
 10
103.7499893172543
 20
397.7266864105438
 30
0.0
 11
103.7499893172543
 21
405.5209150446074
 31
0.0
 11
104.1978783546367
 21
403.4658966210084
 31
0.0
 11
104.3483366426277
 21
401.451072732889
 31
0.0
 11
104.1978783546367
 21
399.5231159778429
 31
0.0
 11
103.7499893172543
 21
397.7266864105438
 31
0.0
  0
SPLINE
  5
1E3
330
52
100
AcDbEntity
  8
0
  6
Continuous
 62
     7
100
AcDbSpline
210
0.0
220
0.0
230
1.0
 70
     8
 71
     3
 72
    13
 73
     9
 74
     7
 42
0.000000001
 43
0.0000000001
 44
0.00000001
 40
0.0
 40
0.0
 40
0.0
 40
0.0
 40
1.618800875634772
 40
3.296662960634611
 40
5.042045806819241
 40
6.857713221235828
 40
8.74115751454754
 40
10.68531582206943
 40
10.68531582206943
 40
10.68531582206943
 40
10.68531582206943
 10
163.3500053428931
 20
389.5860429887685
 30
0.0
 10
163.1330986558714
 20
389.0906222866118
 30
0.0
 10
162.6913715542262
 20
388.0817056792223
 30
0.0
 10
162.3457496484096
 20
386.42599015699
 30
0.0
 10
162.2232974031098
 20
384.6795608658626
 30
0.0
 10
162.3542103303467
 20
382.8643958649209
 30
0.0
 10
162.7112015628338
 20
381.0108475093318
 30
0.0
 10
163.1348308541472
 20
379.8058127453733
 30
0.0
 10
163.3500053428931
 20
379.1937381433552
 30
0.0
 11
163.3500053428931
 21
389.5860429887685
 31
0.0
 11
162.7513068922804
 21
388.082022893904
 31
0.0
 11
162.3875287015717
 21
386.4440709374315
 31
0.0
 11
162.2655052575289
 21
384.7029587741724
 31
0.0
 11
162.3875287015717
 21
382.8913963426479
 31
0.0
 11
162.7513068922804
 21
381.0434169498444
 31
0.0
 11
163.3500053428931
 21
379.1937381433552
 31
0.0
  0
SPLINE
  5
1E4
330
52
100
AcDbEntity
  8
0
  6
Continuous
 62
     7
100
AcDbSpline
210
0.0
220
0.0
230
1.0
 70
     8
 71
     3
 72
    13
 73
     9
 74
     7
 42
0.000000001
 43
0.0000000001
 44
0.00000001
 40
0.0
 40
0.0
 40
0.0
 40
0.0
 40
1.618800875634698
 40
3.296662960634587
 40
5.042045806819222
 40
6.857713221235816
 40
8.741157514547517
 40
10.6853158220694
 40
10.6853158220694
 40
10.6853158220694
 40
10.6853158220694
 10
162.2500053428931
 20
388.6334150446056
 30
0.0
 10
162.0330986558714
 20
388.1379943424489
 30
0.0
 10
161.5913715542264
 20
387.1290777350597
 30
0.0
 10
161.2457496484097
 20
385.473362212827
 30
0.0
 10
161.1232974031097
 20
383.7269329216998
 30
0.0
 10
161.2542103303468
 20
381.9117679207582
 30
0.0
 10
161.6112015628338
 20
380.0582195651689
 30
0.0
 10
162.0348308541472
 20
378.8531848012104
 30
0.0
 10
162.2500053428931
 20
378.2411101991923
 30
0.0
 11
162.2500053428931
 21
388.6334150446056
 31
0.0
 11
161.6513068922804
 21
387.1293949497411
 31
0.0
 11
161.2875287015718
 21
385.4914429932687
 31
0.0
 11
161.1655052575289
 21
383.7503308300095
 31
0.0
 11
161.2875287015718
 21
381.938768398485
 31
0.0
 11
161.6513068922804
 21
380.0907890056815
 31
0.0
 11
162.2500053428931
 21
378.2411101991923
 31
0.0
  0
ENDBLK
  5
54
330
52
100
AcDbEntity
  8
0
100
AcDbBlockEnd
  0
BLOCK
  5
57
330
55
100
AcDbEntity
  8
0
100
AcDbBlockBegin
  2
AllgSicht1
 70
     0
 10
133.5499979999899
 20
400.0
 30
0.0
  3
AllgSicht1
  1

  0
INSERT
  5
56
330
55
100
AcDbEntity
  8
0
100
AcDbBlockReference
  2
d_sttb_25_select__1
 10
103.7499893172543
 20
375.1872188004025
 30
0.0
  0
MTEXT
  5
1E5
330
55
100
AcDbEntity
  8
1
 62
     6
100
AcDbMText
 10
133.5499979999912
 20
368.9109823543731
 30
0.0
 40
5.0
 41
0.0
 71
     2
 72
     1
  1
 
  7
CONVERTER_11
 73
     1
 44
1.32052821128451
  0
ENDBLK
  5
58
330
55
100
AcDbEntity
  8
0
100
AcDbBlockEnd
  0
BLOCK
  5
5A
330
59
100
AcDbEntity
  8
0
100
AcDbBlockBegin
  2
d_sttb_25_select__2
 70
     0
 10
-12.77500078732772
 20
391.9000000238417
 30
0.0
  3
d_sttb_25_select__2
  1

  0
LINE
  5
1E6
330
59
100
AcDbEntity
  8
0
  6
Continuous
 62
     7
100
AcDbLine
 10
-12.77500078732772
 20
391.9000000238417
 30
0.0
 11
-11.47899778787258
 21
391.9000000238417
 31
0.0
  0
LINE
  5
1E7
330
59
100
AcDbEntity
  8
0
  6
Continuous
 62
     7
100
AcDbLine
 10
0.62499921267227
 20
394.1000000238417
 30
0.0
 11
0.62499921267227
 21
391.9000000238417
 31
0.0
  0
LINE
  5
1E8
330
59
100
AcDbEntity
  8
0
  6
Continuous
 62
     7
100
AcDbLine
 10
34.9789959044676
 20
394.1000000238417
 30
0.0
 11
34.9789959044676
 21
391.9000000238417
 31
0.0
  0
LINE
  5
1E9
330
59
100
AcDbEntity
  8
0
  6
Continuous
 62
     7
100
AcDbLine
 10
36.27499921269238
 20
391.9000000238417
 30
0.0
 11
34.9789959044676
 21
391.9000000238417
 31
0.0
  0
LINE
  5
1EA
330
59
100
AcDbEntity
  8
0
  6
Continuous
 62
     7
100
AcDbLine
 10
36.27499921269238
 20
394.1000000238417
 30
0.0
 11
36.27499921269238
 21
391.9000000238417
 31
0.0
  0
LINE
  5
1EB
330
59
100
AcDbEntity
  8
0
  6
Continuous
 62
     7
100
AcDbLine
 10
1.92100252087738
 20
391.9000000238417
 30
0.0
 11
0.62499921267227
 21
391.9000000238417
 31
0.0
  0
LINE
  5
1EC
330
59
100
AcDbEntity
  8
0
  6
Continuous
 62
     7
100
AcDbLine
 10
54.77499921267228
 20
391.9000000238417
 30
0.0
 11
53.47899559573071
 21
391.9000000238417
 31
0.0
  0
LINE
  5
1ED
330
59
100
AcDbEntity
  8
0
  6
Continuous
 62
     7
100
AcDbLine
 10
-11.47899778787258
 20
391.9000000238417
 30
0.0
 11
0.62499921267227
 21
391.9000000238417
 31
0.0
  0
LINE
  5
1EE
330
59
100
AcDbEntity
  8
0
  6
Continuous
 62
     7
100
AcDbLine
 10
53.47899559573071
 20
391.9000000238417
 30
0.0
 11
36.27499921269238
 21
391.9000000238417
 31
0.0
  0
LINE
  5
1EF
330
59
100
AcDbEntity
  8
0
  6
Continuous
 62
     7
100
AcDbLine
 10
-12.77500078732772
 20
394.1000000238417
 30
0.0
 11
-11.47899778787258
 21
394.1000000238417
 31
0.0
  0
LINE
  5
1F0
330
59
100
AcDbEntity
  8
0
  6
Continuous
 62
     7
100
AcDbLine
 10
53.47899559573071
 20
394.1000000238417
 30
0.0
 11
54.77499921267228
 21
394.1000000238417
 31
0.0
  0
LINE
  5
1F1
330
59
100
AcDbEntity
  8
0
  6
Continuous
 62
     7
100
AcDbLine
 10
36.27499921269238
 20
394.1000000238417
 30
0.0
 11
53.47899559573071
 21
394.1000000238417
 31
0.0
  0
LINE
  5
1F2
330
59
100
AcDbEntity
  8
0
  6
Continuous
 62
     7
100
AcDbLine
 10
34.9789959044676
 20
394.1000000238417
 30
0.0
 11
36.27499921269238
 21
394.1000000238417
 31
0.0
  0
LINE
  5
1F3
330
59
100
AcDbEntity
  8
0
  6
Continuous
 62
     7
100
AcDbLine
 10
-12.77500078732772
 20
391.9000000238417
 30
0.0
 11
-12.77500078732772
 21
394.1000000238417
 31
0.0
  0
LINE
  5
1F4
330
59
100
AcDbEntity
  8
0
  6
Continuous
 62
     7
100
AcDbLine
 10
0.62499921267227
 20
394.1000000238417
 30
0.0
 11
1.92100252087739
 21
394.1000000238417
 31
0.0
  0
LINE
  5
1F5
330
59
100
AcDbEntity
  8
0
  6
Continuous
 62
     7
100
AcDbLine
 10
-11.47899778787258
 20
394.1000000238417
 30
0.0
 11
0.62499921267227
 21
394.1000000238417
 31
0.0
  0
LINE
  5
1F6
330
59
100
AcDbEntity
  8
0
  6
Continuous
 62
     7
100
AcDbLine
 10
1.92100252087739
 20
394.1000000238417
 30
0.0
 11
34.9789959044676
 21
394.1000000238417
 31
0.0
  0
LINE
  5
1F7
330
59
100
AcDbEntity
  8
0
  6
Continuous
 62
     7
100
AcDbLine
 10
-11.47899778787258
 20
394.1000000238417
 30
0.0
 11
-11.47899778787258
 21
391.9000000238417
 31
0.0
  0
LINE
  5
1F8
330
59
100
AcDbEntity
  8
0
  6
Continuous
 62
     7
100
AcDbLine
 10
1.92100252087739
 20
394.1000000238417
 30
0.0
 11
1.92100252087738
 21
391.9000000238417
 31
0.0
  0
LINE
  5
1F9
330
59
100
AcDbEntity
  8
0
  6
Continuous
 62
     7
100
AcDbLine
 10
53.47899559573071
 20
394.1000000238417
 30
0.0
 11
53.47899559573071
 21
391.9000000238417
 31
0.0
  0
LINE
  5
1FA
330
59
100
AcDbEntity
  8
0
  6
Continuous
 62
     7
100
AcDbLine
 10
54.77499921267228
 20
394.1000000238417
 30
0.0
 11
54.77499921267228
 21
391.9000000238417
 31
0.0
  0
LINE
  5
1FB
330
59
100
AcDbEntity
  8
0
  6
Continuous
 62
     7
100
AcDbLine
 10
34.9789959044676
 20
391.9000000238417
 30
0.0
 11
1.92100252087738
 21
391.9000000238417
 31
0.0
  0
ENDBLK
  5
5B
330
59
100
AcDbEntity
  8
0
100
AcDbBlockEnd
  0
BLOCK
  5
5E
330
5C
100
AcDbEntity
  8
0
100
AcDbBlockBegin
  2
Drfsicht1
 70
     0
 10
20.99999999999001
 20
392.9999999999998
 30
0.0
  3
Drfsicht1
  1

  0
INSERT
  5
5D
330
5C
100
AcDbEntity
  8
0
100
AcDbBlockReference
  2
d_sttb_25_select__2
 10
-12.77500078732772
 20
391.9000000238417
 30
0.0
  0
MTEXT
  5
1FC
330
5C
100
AcDbEntity
  8
1
 62
     6
100
AcDbMText
 10
20.99999999999001
 20
386.8999999761581
 30
0.0
 40
5.0
 41
0.0
 71
     2
 72
     1
  1
 
  7
CONVERTER_11
 73
     1
 44
1.32052821128451
  0
DIMENSION
  5
209
330
5C
100
AcDbEntity
  8
1
100
AcDbDimension
  2
*D17
 10
-31.32323492877809
 20
394.1000000238417
 30
0.0
 11
-34.74823492877809
 21
404.082922027268
 31
0.0
 70
    32
  1
<>
 71
     5
 42
-1.0
 53
90.0
  3
ME10_DIM_10
100
AcDbAlignedDimension
 13
-12.77500078732772
 23
391.9000000238417
 33
0.0
 14
-12.77500078732772
 24
394.1000000238417
 34
0.0
 50
90.0
100
AcDbRotatedDimension
  0
ENDBLK
  5
5F
330
5C
100
AcDbEntity
  8
0
100
AcDbBlockEnd
  0
BLOCK
  5
61
330
60
100
AcDbEntity
  8
0
100
AcDbBlockBegin
  2
d_sttb_25_select__3
 70
     0
 10
99.77499907071382
 20
440.1000009741578
 30
0.0
  3
d_sttb_25_select__3
  1

  0
LINE
  5
20A
330
60
100
AcDbEntity
  8
0
  6
Continuous
 62
     7
100
AcDbLine
 10
118.2749990706938
 20
472.4000009740506
 30
0.0
 11
118.2749990706937
 21
469.1500009741563
 31
0.0
  0
LINE
  5
20B
330
60
100
AcDbEntity
  8
0
  6
Continuous
 62
     7
100
AcDbLine
 10
119.5710023789185
 20
479.7500009741499
 30
0.0
 11
118.2749990706938
 21
472.4000009740506
 31
0.0
  0
LINE
  5
20C
330
60
100
AcDbEntity
  8
0
  6
Continuous
 62
     7
100
AcDbLine
 10
101.0710026876554
 20
469.1500009741563
 30
0.0
 11
99.77499907071382
 21
461.7999992232368
 31
0.0
  0
LINE
  5
20D
330
60
100
AcDbEntity
  8
0
  6
Continuous
 62
     7
100
AcDbLine
 10
153.9249990707138
 20
472.4000009741619
 30
0.0
 11
152.6289957625087
 21
479.7500009741499
 31
0.0
  0
LINE
  5
20E
330
60
100
AcDbEntity
  8
0
  6
Continuous
 62
     7
100
AcDbLine
 10
152.6289957625087
 20
479.7500009741499
 30
0.0
 11
119.5710023789185
 21
479.7500009741499
 31
0.0
  0
LINE
  5
20F
330
60
100
AcDbEntity
  8
0
  6
Continuous
 62
     7
100
AcDbLine
 10
167.3249990707138
 20
461.8000027251761
 30
0.0
 11
166.0289960712587
 21
469.1500009741563
 31
0.0
  0
LINE
  5
210
330
60
100
AcDbEntity
  8
0
  6
Continuous
 62
     7
100
AcDbLine
 10
153.9249990707138
 20
469.1500009741492
 30
0.0
 11
153.9249990707138
 21
472.4000009741619
 31
0.0
  0
LINE
  5
211
330
60
100
AcDbEntity
  8
0
  6
Continuous
 62
     7
100
AcDbLine
 10
166.0289960712587
 20
469.1500009741563
 30
0.0
 11
153.9249990707138
 21
469.1500009741492
 31
0.0
  0
LINE
  5
212
330
60
100
AcDbEntity
  8
0
  6
Continuous
 62
     7
100
AcDbLine
 10
118.2749990706937
 20
469.1500009741563
 30
0.0
 11
101.0710026876554
 21
469.1500009741563
 31
0.0
  0
LINE
  5
213
330
60
100
AcDbEntity
  8
0
  6
Continuous
 62
     7
100
AcDbLine
 10
167.3249990707138
 20
457.1000009741587
 30
0.0
 11
167.3249990707138
 21
461.8000027251761
 31
0.0
  0
LINE
  5
214
330
60
100
AcDbEntity
  8
0
  6
Continuous
 62
     7
100
AcDbLine
 10
99.77499907071382
 20
461.7999992232368
 30
0.0
 11
99.77499907071382
 21
457.1000009741567
 31
0.0
  0
LINE
  5
215
330
60
100
AcDbEntity
  8
0
  6
Continuous
 62
     7
100
AcDbLine
 10
104.8799415512393
 20
440.1000009741578
 30
0.0
 11
167.3249990707138
 21
440.1000009741578
 31
0.0
  0
LINE
  5
216
330
60
100
AcDbEntity
  8
0
  6
Continuous
 62
     7
100
AcDbLine
 10
99.77499907071382
 20
445.1000009741566
 30
0.0
 11
99.77499907071382
 21
443.099866439423
 31
0.0
  0
LINE
  5
217
330
60
100
AcDbEntity
  8
0
  6
Continuous
 62
     7
100
AcDbLine
 10
167.3249990707138
 20
440.1000009741578
 30
0.0
 11
167.3249990707138
 21
448.1000009741545
 31
0.0
  0
LINE
  5
218
330
60
100
AcDbEntity
  8
0
  6
Continuous
 62
     7
100
AcDbLine
 10
99.77499907071382
 20
443.099866439423
 30
0.0
 11
104.8799415512393
 21
440.1000009741578
 31
0.0
  0
ARC
  5
219
330
60
100
AcDbEntity
  8
0
  6
Continuous
 62
     7
100
AcDbCircle
 10
86.02727198584631
 20
451.1000009741566
 30
0.0
 40
14.99999999999999
100
AcDbArc
 50
336.4218215217981
 51
23.57817847820225
  0
ARC
  5
21A
330
60
100
AcDbEntity
  8
0
  6
Continuous
 62
     7
100
AcDbCircle
 10
181.6340870919673
 20
452.6000009741566
 30
0.0
 40
14.99999999999998
100
AcDbArc
 50
162.5423968762694
 51
197.4576031237305
  0
ENDBLK
  5
62
330
60
100
AcDbEntity
  8
0
100
AcDbBlockEnd
  0
BLOCK
  5
65
330
63
100
AcDbEntity
  8
0
100
AcDbBlockBegin
  2
Rckans1
 70
     0
 10
133.5499982833961
 20
459.9250003099442
 30
0.0
  3
Rckans1
  1

  0
INSERT
  5
64
330
63
100
AcDbEntity
  8
0
100
AcDbBlockReference
  2
d_sttb_25_select__3
 10
99.77499907071382
 20
440.1000009741578
 30
0.0
  0
MTEXT
  5
21B
330
63
100
AcDbEntity
  8
1
 62
     6
100
AcDbMText
 10
133.5499982833961
 20
435.1000000238419
 30
0.0
 40
5.0
 41
0.0
 71
     2
 72
     1
  1
 
  7
CONVERTER_11
 73
     1
 44
1.32052821128451
  0
ENDBLK
  5
66
330
63
100
AcDbEntity
  8
0
100
AcDbBlockEnd
  0
BLOCK
  5
68
330
67
100
AcDbEntity
  8
0
100
AcDbBlockBegin
  2
d_sttb_25_select__4
 70
     0
 10
76.67499911785012
 20
440.1000009741578
 30
0.0
  3
d_sttb_25_select__4
  1

  0
LINE
  5
21C
330
67
100
AcDbEntity
  8
0
  6
Continuous
 62
     7
100
AcDbLine
 10
76.67499911785012
 20
479.7500009741499
 30
0.0
 11
78.87499911785014
 21
479.7500009741499
 31
0.0
  0
LINE
  5
21D
330
67
100
AcDbEntity
  8
0
  6
Continuous
 62
     7
100
AcDbLine
 10
76.67499911785012
 20
461.800002725176
 30
0.0
 11
76.67499911785012
 21
469.1500009741562
 31
0.0
  0
LINE
  5
21E
330
67
100
AcDbEntity
  8
0
  6
Continuous
 62
     7
100
AcDbLine
 10
76.67499911785012
 20
469.1500009741562
 30
0.0
 11
76.67499911785012
 21
472.4000009741618
 31
0.0
  0
LINE
  5
21F
330
67
100
AcDbEntity
  8
0
  6
Continuous
 62
     7
100
AcDbLine
 10
76.67499911785012
 20
472.4000009741618
 30
0.0
 11
76.67499911785012
 21
479.7500009741499
 31
0.0
  0
LINE
  5
220
330
67
100
AcDbEntity
  8
0
  6
Continuous
 62
     7
100
AcDbLine
 10
78.87499911785014
 20
461.800002725176
 30
0.0
 11
78.87499911785014
 21
469.1500009741562
 31
0.0
  0
LINE
  5
221
330
67
100
AcDbEntity
  8
0
  6
Continuous
 62
     7
100
AcDbLine
 10
76.67499911785012
 20
461.800002725176
 30
0.0
 11
78.87499911785014
 21
461.800002725176
 31
0.0
  0
LINE
  5
222
330
67
100
AcDbEntity
  8
0
  6
Continuous
 62
     7
100
AcDbLine
 10
76.67499911785012
 20
469.1500009741562
 30
0.0
 11
78.87499911785014
 21
469.1500009741562
 31
0.0
  0
LINE
  5
223
330
67
100
AcDbEntity
  8
0
  6
Continuous
 62
     7
100
AcDbLine
 10
76.67499911785012
 20
472.4000009741618
 30
0.0
 11
78.87499911785014
 21
472.4000009741618
 31
0.0
  0
LINE
  5
224
330
67
100
AcDbEntity
  8
0
  6
Continuous
 62
     7
100
AcDbLine
 10
78.87499911785014
 20
448.1000009741545
 30
0.0
 11
78.87499911785014
 21
440.1000009741578
 31
0.0
  0
LINE
  5
225
330
67
100
AcDbEntity
  8
0
  6
Continuous
 62
     7
100
AcDbLine
 10
76.67499911785012
 20
457.1000009741587
 30
0.0
 11
76.67499911785012
 21
448.1000009741545
 31
0.0
  0
LINE
  5
226
330
67
100
AcDbEntity
  8
0
  6
Continuous
 62
     7
100
AcDbLine
 10
78.87499911785014
 20
461.800002725176
 30
0.0
 11
78.87499911785014
 21
457.1000009741587
 31
0.0
  0
LINE
  5
227
330
67
100
AcDbEntity
  8
0
  6
Continuous
 62
     7
100
AcDbLine
 10
78.87499911785014
 20
472.4000009741618
 30
0.0
 11
78.87499911785014
 21
469.1500009741562
 31
0.0
  0
LINE
  5
228
330
67
100
AcDbEntity
  8
0
  6
Continuous
 62
     7
100
AcDbLine
 10
78.87499911785014
 20
479.7500009741499
 30
0.0
 11
78.87499911785014
 21
472.4000009741618
 31
0.0
  0
LINE
  5
229
330
67
100
AcDbEntity
  8
0
  6
Continuous
 62
     7
100
AcDbLine
 10
78.87499911785014
 20
457.1000009741587
 30
0.0
 11
76.67499911785012
 21
457.1000009741587
 31
0.0
  0
LINE
  5
22A
330
67
100
AcDbEntity
  8
0
  6
Continuous
 62
     7
100
AcDbLine
 10
76.67499911785012
 20
457.1000009741587
 30
0.0
 11
76.67499911785012
 21
461.800002725176
 31
0.0
  0
LINE
  5
22B
330
67
100
AcDbEntity
  8
0
  6
Continuous
 62
     7
100
AcDbLine
 10
76.67499911785012
 20
440.1000009741578
 30
0.0
 11
76.67499911785012
 21
448.1000009741545
 31
0.0
  0
LINE
  5
22C
330
67
100
AcDbEntity
  8
0
  6
Continuous
 62
     7
100
AcDbLine
 10
78.87499911785014
 20
448.1000009741545
 30
0.0
 11
76.67499911785012
 21
448.1000009741545
 31
0.0
  0
LINE
  5
22D
330
67
100
AcDbEntity
  8
0
  6
Continuous
 62
     7
100
AcDbLine
 10
76.67499911785012
 20
440.1000009741578
 30
0.0
 11
78.87499911785014
 21
440.1000009741578
 31
0.0
  0
LINE
  5
22E
330
67
100
AcDbEntity
  8
0
  6
Continuous
 62
     7
100
AcDbLine
 10
78.87499911785014
 20
457.1000009741587
 30
0.0
 11
78.87499911785014
 21
448.1000009741545
 31
0.0
  0
ENDBLK
  5
69
330
67
100
AcDbEntity
  8
0
100
AcDbBlockEnd
  0
BLOCK
  5
6C
330
6A
100
AcDbEntity
  8
0
100
AcDbBlockBegin
  2
SA_Links1
 70
     0
 10
77.77499914169192
 20
459.9250003099442
 30
0.0
  3
SA_Links1
  1

  0
INSERT
  5
6B
330
6A
100
AcDbEntity
  8
0
100
AcDbBlockReference
  2
d_sttb_25_select__4
 10
76.67499911785012
 20
440.1000009741578
 30
0.0
  0
MTEXT
  5
22F
330
6A
100
AcDbEntity
  8
1
 62
     6
100
AcDbMText
 10
77.77499914169312
 20
435.1000000238419
 30
0.0
 40
5.0
 41
0.0
 71
     2
 72
     1
  1
 
  7
CONVERTER_11
 73
     1
 44
1.32052821128451
  0
ENDBLK
  5
6D
330
6A
100
AcDbEntity
  8
0
100
AcDbBlockEnd
  0
BLOCK
  5
6F
330
6E
100
AcDbEntity
  8
0
100
AcDbBlockBegin
  2
d_sttb_25_select__5
 70
     0
 10
-59.87499911785118
 20
440.1000009741578
 30
0.0
  3
d_sttb_25_select__5
  1

  0
LINE
  5
230
330
6E
100
AcDbEntity
  8
0
  6
Continuous
 62
     7
100
AcDbLine
 10
-57.67499911785117
 20
461.7999992232368
 30
0.0
 11
-57.67499911785117
 21
457.1000009741567
 31
0.0
  0
LINE
  5
231
330
6E
100
AcDbEntity
  8
0
  6
Continuous
 62
     7
100
AcDbLine
 10
-57.67499911785117
 20
445.1000009741566
 30
0.0
 11
-57.67499911785117
 21
443.099866439423
 31
0.0
  0
LINE
  5
232
330
6E
100
AcDbEntity
  8
0
  6
Continuous
 62
     7
100
AcDbLine
 10
-57.67499911785117
 20
457.1000009741567
 30
0.0
 11
-57.67499911785117
 21
445.1000009741566
 31
0.0
  0
LINE
  5
233
330
6E
100
AcDbEntity
  8
0
  6
Continuous
 62
     7
100
AcDbLine
 10
-57.67499911785117
 20
443.099866439423
 30
0.0
 11
-57.67499911785117
 21
440.1000009741578
 31
0.0
  0
LINE
  5
234
330
6E
100
AcDbEntity
  8
0
  6
Continuous
 62
     7
100
AcDbLine
 10
-59.87499911785118
 20
440.1000009741578
 30
0.0
 11
-57.67499911785117
 21
440.1000009741578
 31
0.0
  0
LINE
  5
235
330
6E
100
AcDbEntity
  8
0
  6
Continuous
 62
     7
100
AcDbLine
 10
-57.67499911785117
 20
443.099866439423
 30
0.0
 11
-59.87499911785118
 21
443.099866439423
 31
0.0
  0
LINE
  5
236
330
6E
100
AcDbEntity
  8
0
  6
Continuous
 62
     7
100
AcDbLine
 10
-59.87499911785118
 20
440.1000009741578
 30
0.0
 11
-59.87499911785118
 21
443.099866439423
 31
0.0
  0
LINE
  5
237
330
6E
100
AcDbEntity
  8
0
  6
Continuous
 62
     7
100
AcDbLine
 10
-59.87499911785118
 20
443.099866439423
 30
0.0
 11
-59.87499911785118
 21
445.1000009741566
 31
0.0
  0
LINE
  5
238
330
6E
100
AcDbEntity
  8
0
  6
Continuous
 62
     7
100
AcDbLine
 10
-57.67499911785117
 20
445.1000009741566
 30
0.0
 11
-59.87499911785118
 21
445.1000009741566
 31
0.0
  0
LINE
  5
239
330
6E
100
AcDbEntity
  8
0
  6
Continuous
 62
     7
100
AcDbLine
 10
-57.67499911785117
 20
472.4000009740506
 30
0.0
 11
-57.67499911785117
 21
469.1500009741563
 31
0.0
  0
LINE
  5
23A
330
6E
100
AcDbEntity
  8
0
  6
Continuous
 62
     7
100
AcDbLine
 10
-57.67499911785117
 20
479.7500009741499
 30
0.0
 11
-57.67499911785117
 21
472.4000009740506
 31
0.0
  0
LINE
  5
23B
330
6E
100
AcDbEntity
  8
0
  6
Continuous
 62
     7
100
AcDbLine
 10
-57.67499911785117
 20
469.1500009741563
 30
0.0
 11
-57.67499911785117
 21
461.7999992232368
 31
0.0
  0
LINE
  5
23C
330
6E
100
AcDbEntity
  8
0
  6
Continuous
 62
     7
100
AcDbLine
 10
-57.67499911785117
 20
457.1000009741567
 30
0.0
 11
-59.87499911785118
 21
457.1000009741567
 31
0.0
  0
LINE
  5
23D
330
6E
100
AcDbEntity
  8
0
  6
Continuous
 62
     7
100
AcDbLine
 10
-57.67499911785117
 20
479.7500009741499
 30
0.0
 11
-59.87499911785118
 21
479.7500009741499
 31
0.0
  0
LINE
  5
23E
330
6E
100
AcDbEntity
  8
0
  6
Continuous
 62
     7
100
AcDbLine
 10
-57.67499911785117
 20
461.7999992232368
 30
0.0
 11
-59.87499911785118
 21
461.7999992232368
 31
0.0
  0
LINE
  5
23F
330
6E
100
AcDbEntity
  8
0
  6
Continuous
 62
     7
100
AcDbLine
 10
-59.87499911785118
 20
472.4000009740506
 30
0.0
 11
-59.87499911785118
 21
479.7500009741499
 31
0.0
  0
LINE
  5
240
330
6E
100
AcDbEntity
  8
0
  6
Continuous
 62
     7
100
AcDbLine
 10
-59.87499911785118
 20
469.1500009741563
 30
0.0
 11
-59.87499911785118
 21
472.4000009740506
 31
0.0
  0
LINE
  5
241
330
6E
100
AcDbEntity
  8
0
  6
Continuous
 62
     7
100
AcDbLine
 10
-59.87499911785118
 20
457.1000009741567
 30
0.0
 11
-59.87499911785118
 21
461.7999992232368
 31
0.0
  0
LINE
  5
242
330
6E
100
AcDbEntity
  8
0
  6
Continuous
 62
     7
100
AcDbLine
 10
-59.87499911785118
 20
461.7999992232368
 30
0.0
 11
-59.87499911785118
 21
469.1500009741563
 31
0.0
  0
LINE
  5
243
330
6E
100
AcDbEntity
  8
0
  6
Continuous
 62
     7
100
AcDbLine
 10
-57.67499911785117
 20
472.4000009740506
 30
0.0
 11
-59.87499911785118
 21
472.4000009740506
 31
0.0
  0
LINE
  5
244
330
6E
100
AcDbEntity
  8
0
  6
Continuous
 62
     7
100
AcDbLine
 10
-57.67499911785117
 20
469.1500009741563
 30
0.0
 11
-59.87499911785118
 21
469.1500009741563
 31
0.0
  0
LINE
  5
245
330
6E
100
AcDbEntity
  8
0
  6
Continuous
 62
     7
100
AcDbLine
 10
-59.87499911785118
 20
457.1000009741567
 30
0.0
 11
-59.87499911785118
 21
445.1000009741566
 31
0.0
  0
ENDBLK
  5
70
330
6E
100
AcDbEntity
  8
0
100
AcDbBlockEnd
  0
BLOCK
  5
73
330
71
100
AcDbEntity
  8
0
100
AcDbBlockBegin
  2
SA_Rechts1
 70
     0
 10
-58.77499914169303
 20
459.9250003099442
 30
0.0
  3
SA_Rechts1
  1

  0
INSERT
  5
72
330
71
100
AcDbEntity
  8
0
100
AcDbBlockReference
  2
d_sttb_25_select__5
 10
-59.87499911785118
 20
440.1000009741578
 30
0.0
  0
MTEXT
  5
246
330
71
100
AcDbEntity
  8
1
 62
     6
100
AcDbMText
 10
-58.77499914169323
 20
435.1000000238419
 30
0.0
 40
5.0
 41
0.0
 71
     2
 72
     1
  1
 
  7
CONVERTER_11
 73
     1
 44
1.32052821128451
  0
ENDBLK
  5
74
330
71
100
AcDbEntity
  8
0
100
AcDbBlockEnd
  0
BLOCK
  5
76
330
75
100
AcDbEntity
  8
0
100
AcDbBlockBegin
  2
d_sttb_25_select__6
 70
     0
 10
-12.77500078732761
 20
440.1000009741578
 30
0.0
  3
d_sttb_25_select__6
  1

  0
LINE
  5
247
330
75
100
AcDbEntity
  8
0
  6
Continuous
 62
     7
100
AcDbLine
 10
-12.77500078732761
 20
461.800002725176
 30
0.0
 11
-12.77500078732761
 21
457.1000009741587
 31
0.0
  0
LINE
  5
248
330
75
100
AcDbEntity
  8
0
  6
Continuous
 62
     7
100
AcDbLine
 10
-12.77500078732761
 20
461.800002725176
 30
0.0
 11
-11.47899778787246
 21
469.1500009741562
 31
0.0
  0
LINE
  5
249
330
75
100
AcDbEntity
  8
0
  6
Continuous
 62
     7
100
AcDbLine
 10
36.27499921269246
 20
472.4000009740505
 30
0.0
 11
34.97899590446772
 21
479.7500009741499
 31
0.0
  0
LINE
  5
24A
330
75
100
AcDbEntity
  8
0
  6
Continuous
 62
     7
100
AcDbLine
 10
34.97899590446772
 20
479.7500009741499
 30
0.0
 11
1.92100252087749
 21
479.7500009741499
 31
0.0
  0
LINE
  5
24B
330
75
100
AcDbEntity
  8
0
  6
Continuous
 62
     7
100
AcDbLine
 10
1.92100252087749
 20
479.7500009741499
 30
0.0
 11
0.62499921267239
 21
472.4000009741618
 31
0.0
  0
LINE
  5
24C
330
75
100
AcDbEntity
  8
0
  6
Continuous
 62
     7
100
AcDbLine
 10
36.27499921269249
 20
469.1500009741562
 30
0.0
 11
36.27499921269246
 21
472.4000009740505
 31
0.0
  0
LINE
  5
24D
330
75
100
AcDbEntity
  8
0
  6
Continuous
 62
     7
100
AcDbLine
 10
0.62499921267239
 20
472.4000009741618
 30
0.0
 11
0.62499921267239
 21
469.1500009741491
 31
0.0
  0
LINE
  5
24E
330
75
100
AcDbEntity
  8
0
  6
Continuous
 62
     7
100
AcDbLine
 10
54.77499921267238
 20
461.7999992232368
 30
0.0
 11
53.47899559573088
 21
469.1500009741562
 31
0.0
  0
LINE
  5
24F
330
75
100
AcDbEntity
  8
0
  6
Continuous
 62
     7
100
AcDbLine
 10
54.77499921267238
 20
457.1000009741566
 30
0.0
 11
54.77499921267238
 21
461.7999992232368
 31
0.0
  0
LINE
  5
250
330
75
100
AcDbEntity
  8
0
  6
Continuous
 62
     7
100
AcDbLine
 10
54.77499921267238
 20
443.099866439423
 30
0.0
 11
54.77499921267238
 21
445.1000009741566
 31
0.0
  0
LINE
  5
251
330
75
100
AcDbEntity
  8
0
  6
Continuous
 62
     7
100
AcDbLine
 10
-12.77500078732761
 20
440.1000009741578
 30
0.0
 11
49.67005673214688
 21
440.1000009741578
 31
0.0
  0
LINE
  5
252
330
75
100
AcDbEntity
  8
0
  6
Continuous
 62
     7
100
AcDbLine
 10
-12.7750007873276
 20
448.1000009741545
 30
0.0
 11
-12.77500078732761
 21
440.1000009741578
 31
0.0
  0
LINE
  5
253
330
75
100
AcDbEntity
  8
0
  6
Continuous
 62
     7
100
AcDbLine
 10
53.47899559573088
 20
469.1500009741562
 30
0.0
 11
36.27499921269249
 21
469.1500009741562
 31
0.0
  0
LINE
  5
254
330
75
100
AcDbEntity
  8
0
  6
Continuous
 62
     7
100
AcDbLine
 10
-11.47899778787246
 20
469.1500009741562
 30
0.0
 11
0.62499921267239
 21
469.1500009741491
 31
0.0
  0
LINE
  5
255
330
75
100
AcDbEntity
  8
0
  6
Continuous
 62
     7
100
AcDbLine
 10
49.67005673214688
 20
440.1000009741578
 30
0.0
 11
54.77499921267238
 21
443.099866439423
 31
0.0
  0
ARC
  5
256
330
75
100
AcDbEntity
  8
0
  6
Continuous
 62
     7
100
AcDbCircle
 10
68.52272629753988
 20
451.1000009741566
 30
0.0
 40
14.99999999999998
100
AcDbArc
 50
156.4218215217982
 51
203.5781784782018
  0
ARC
  5
257
330
75
100
AcDbEntity
  8
0
  6
Continuous
 62
     7
100
AcDbCircle
 10
-27.08408880858113
 20
452.6000009741566
 30
0.0
 40
15.00000000000001
100
AcDbArc
 50
342.5423968762695
 51
17.45760312373052
  0
ENDBLK
  5
77
330
75
100
AcDbEntity
  8
0
100
AcDbBlockEnd
  0
BLOCK
  5
7A
330
78
100
AcDbEntity
  8
0
100
AcDbBlockBegin
  2
Vordans1
 70
     0
 10
20.99999999999012
 20
459.9250003099442
 30
0.0
  3
Vordans1
  1

  0
INSERT
  5
79
330
78
100
AcDbEntity
  8
0
100
AcDbBlockReference
  2
d_sttb_25_select__6
 10
-12.77500078732761
 20
440.1000009741578
 30
0.0
  0
MTEXT
  5
258
330
78
100
AcDbEntity
  8
1
 62
     6
100
AcDbMText
 10
20.99999999998988
 20
435.1000000238419
 30
0.0
 40
5.0
 41
0.0
 71
     2
 72
     1
  1
 
  7
CONVERTER_11
 73
     1
 44
1.32052821128451
  0
DIMENSION
  5
263
330
78
100
AcDbEntity
  8
1
100
AcDbDimension
  2
*D18
 10
-31.3232349287781
 20
479.7500009741499
 30
0.0
 11
-34.7482349287781
 21
458.721038002903
 31
0.0
 70
    32
  1
<>
 71
     5
 42
-1.0
 53
90.0
  3
ME10_DIM_11
100
AcDbAlignedDimension
 13
-12.77500078732761
 23
440.1000009741578
 33
0.0
 14
1.92100252087749
 24
479.7500009741499
 34
0.0
 50
90.0
100
AcDbRotatedDimension
  0
DIMENSION
  5
26E
330
78
100
AcDbEntity
  8
1
100
AcDbDimension
  2
*D19
 10
-12.77500078732761
 20
419.471692644884
 30
0.0
 11
22.0368769165211
 21
422.896692644884
 31
0.0
 70
    32
  1
<>
 71
     5
 42
-1.0
 53
0.00013888888889
  3
ME10_DIM_12
100
AcDbAlignedDimension
 13
54.77499921267238
 23
443.099866439423
 33
0.0
 14
-12.77500078732761
 24
440.1000009741578
 34
0.0
100
AcDbRotatedDimension
  0
ENDBLK
  5
7B
330
78
100
AcDbEntity
  8
0
100
AcDbBlockEnd
  0
BLOCK
  5
84
330
7C
100
AcDbEntity
  8
0
100
AcDbBlockBegin
  2
1
 70
     0
 10
0.0
 20
0.0
 30
0.0
  3
1
  1

  0
INSERT
  5
7D
330
7C
100
AcDbEntity
  8
0
100
AcDbBlockReference
  2
A4I_CS
 10
201.7749999645104
 20
324.7554916642615
 30
0.0
  0
INSERT
  5
7E
330
7C
100
AcDbEntity
  8
0
100
AcDbBlockReference
  2
AllgSicht1
 10
133.5499979999899
 20
400.0
 30
0.0
  0
INSERT
  5
7F
330
7C
100
AcDbEntity
  8
0
100
AcDbBlockReference
  2
Drfsicht1
 10
20.99999999999001
 20
392.9999999999998
 30
0.0
  0
INSERT
  5
80
330
7C
100
AcDbEntity
  8
0
100
AcDbBlockReference
  2
Rckans1
 10
133.5499982833961
 20
459.9250003099442
 30
0.0
  0
INSERT
  5
81
330
7C
100
AcDbEntity
  8
0
100
AcDbBlockReference
  2
SA_Links1
 10
77.77499914169192
 20
459.9250003099442
 30
0.0
  0
INSERT
  5
82
330
7C
100
AcDbEntity
  8
0
100
AcDbBlockReference
  2
SA_Rechts1
 10
-58.77499914169303
 20
459.9250003099442
 30
0.0
  0
INSERT
  5
83
330
7C
100
AcDbEntity
  8
0
100
AcDbBlockReference
  2
Vordans1
 10
20.99999999999012
 20
459.9250003099442
 30
0.0
  0
ENDBLK
  5
85
330
7C
100
AcDbEntity
  8
0
100
AcDbBlockEnd
  0
BLOCK
  5
206
330
1FD
100
AcDbEntity
  8
0
100
AcDbBlockBegin
  2
*D17
 70
     1
 10
0.0
 20
0.0
 30
0.0
  3
*D17
  1

  0
LINE
  5
1FE
330
1FD
100
AcDbEntity
  8
1
  6
Continuous
 62
     2
100
AcDbLine
 10
-31.32323492877809
 20
407.320422027268
 30
0.0
 11
-31.32323492877809
 21
394.1000000238417
 31
0.0
  0
LINE
  5
1FF
330
1FD
100
AcDbEntity
  8
1
  6
Continuous
 62
     2
100
AcDbLine
 10
-31.32323492877809
 20
394.1000000238417
 30
0.0
 11
-31.32323492877809
 21
391.9000000238417
 31
0.0
  0
LINE
  5
200
330
1FD
100
AcDbEntity
  8
1
  6
Continuous
 62
     2
100
AcDbLine
 10
-31.32323492877809
 20
391.9000000238417
 30
0.0
 11
-31.32323492877809
 21
384.9000000238417
 31
0.0
  0
LINE
  5
201
330
1FD
100
AcDbEntity
  8
1
  6
Continuous
 62
     2
100
AcDbLine
 10
-12.77500078732771
 20
394.1000000238417
 30
0.0
 11
-32.82323492877808
 21
394.1000000238417
 31
0.0
  0
LINE
  5
202
330
1FD
100
AcDbEntity
  8
1
  6
Continuous
 62
     2
100
AcDbLine
 10
-12.77500078732771
 20
391.9000000238417
 30
0.0
 11
-32.82323492877808
 21
391.9000000238417
 31
0.0
  0
SOLID
  5
203
330
1FD
100
AcDbEntity
  8
1
 62
     2
100
AcDbTrace
 10
-31.78401867033397
 20
397.6000000238417
 30
0.0
 11
-30.8624511872222
 21
397.6000000238417
 31
0.0
 12
-31.32323492877809
 22
394.1000000238417
 32
0.0
 13
-31.32323492877809
 23
394.1000000238417
 33
0.0
  0
SOLID
  5
204
330
1FD
100
AcDbEntity
  8
1
 62
     2
100
AcDbTrace
 10
-30.86245118722221
 20
388.4000000238417
 30
0.0
 11
-31.78401867033397
 21
388.4000000238417
 31
0.0
 12
-31.32323492877809
 22
391.9000000238417
 32
0.0
 13
-31.32323492877809
 23
391.9000000238417
 33
0.0
  0
MTEXT
  5
205
330
1FD
100
AcDbEntity
  8
1
 62
     3
100
AcDbMText
 10
-33.17323492877809
 20
400.845422027268
 30
0.0
 40
3.5
 41
0.0
 71
     7
 72
     1
  1
2,2
  7
CONVERTER_11
 11
0.0
 21
1.0
 31
0.0
 73
     1
 44
0.60024009603842
  0
ENDBLK
  5
207
330
1FD
100
AcDbEntity
  8
0
100
AcDbBlockEnd
  0
BLOCK
  5
260
330
259
100
AcDbEntity
  8
0
100
AcDbBlockBegin
  2
*D18
 70
     1
 10
0.0
 20
0.0
 30
0.0
  3
*D18
  1

  0
LINE
  5
25A
330
259
100
AcDbEntity
  8
1
  6
Continuous
 62
     2
100
AcDbLine
 10
-31.3232349287781
 20
479.7500009741499
 30
0.0
 11
-31.3232349287781
 21
440.1000009741578
 31
0.0
  0
LINE
  5
25B
330
259
100
AcDbEntity
  8
1
  6
Continuous
 62
     2
100
AcDbLine
 10
1.92100252087748
 20
479.7500009741499
 30
0.0
 11
-32.8232349287781
 21
479.7500009741499
 31
0.0
  0
LINE
  5
25C
330
259
100
AcDbEntity
  8
1
  6
Continuous
 62
     2
100
AcDbLine
 10
-12.77500078732762
 20
440.1000009741578
 30
0.0
 11
-32.8232349287781
 21
440.1000009741578
 31
0.0
  0
SOLID
  5
25D
330
259
100
AcDbEntity
  8
1
 62
     2
100
AcDbTrace
 10
-30.86245118722222
 20
476.2500009741499
 30
0.0
 11
-31.78401867033399
 21
476.2500009741499
 31
0.0
 12
-31.3232349287781
 22
479.7500009741499
 32
0.0
 13
-31.3232349287781
 23
479.7500009741499
 33
0.0
  0
SOLID
  5
25E
330
259
100
AcDbEntity
  8
1
 62
     2
100
AcDbTrace
 10
-31.78401867033399
 20
443.6000009741578
 30
0.0
 11
-30.86245118722222
 21
443.6000009741578
 31
0.0
 12
-31.3232349287781
 22
440.1000009741578
 32
0.0
 13
-31.3232349287781
 23
440.1000009741578
 33
0.0
  0
MTEXT
  5
25F
330
259
100
AcDbEntity
  8
1
 62
     3
100
AcDbMText
 10
-33.1732349287781
 20
453.908538002903
 30
0.0
 40
3.5
 41
0.0
 71
     7
 72
     1
  1
39,7
  7
CONVERTER_11
 11
0.0
 21
1.0
 31
0.0
 73
     1
 44
0.60024009603842
  0
ENDBLK
  5
261
330
259
100
AcDbEntity
  8
0
100
AcDbBlockEnd
  0
BLOCK
  5
26B
330
264
100
AcDbEntity
  8
0
100
AcDbBlockBegin
  2
*D19
 70
     1
 10
0.0
 20
0.0
 30
0.0
  3
*D19
  1

  0
LINE
  5
265
330
264
100
AcDbEntity
  8
1
  6
Continuous
 62
     2
100
AcDbLine
 10
-12.77500078732761
 20
419.471692644884
 30
0.0
 11
54.77499921267238
 21
419.471692644884
 31
0.0
  0
LINE
  5
266
330
264
100
AcDbEntity
  8
1
  6
Continuous
 62
     2
100
AcDbLine
 10
-12.77500078732761
 20
440.1000009741578
 30
0.0
 11
-12.77500078732761
 21
417.971692644884
 31
0.0
  0
LINE
  5
267
330
264
100
AcDbEntity
  8
1
  6
Continuous
 62
     2
100
AcDbLine
 10
54.77499921267238
 20
443.099866439423
 30
0.0
 11
54.77499921267238
 21
417.971692644884
 31
0.0
  0
SOLID
  5
268
330
264
100
AcDbEntity
  8
1
 62
     2
100
AcDbTrace
 10
-9.27500078732761
 20
419.9324763864399
 30
0.0
 11
-9.27500078732761
 21
419.0109089033281
 31
0.0
 12
-12.77500078732761
 22
419.471692644884
 32
0.0
 13
-12.77500078732761
 23
419.471692644884
 33
0.0
  0
SOLID
  5
269
330
264
100
AcDbEntity
  8
1
 62
     2
100
AcDbTrace
 10
51.27499921267238
 20
419.0109089033281
 30
0.0
 11
51.27499921267238
 21
419.9324763864399
 31
0.0
 12
54.77499921267238
 22
419.471692644884
 32
0.0
 13
54.77499921267238
 23
419.471692644884
 33
0.0
  0
MTEXT
  5
26A
330
264
100
AcDbEntity
  8
1
 62
     3
100
AcDbMText
 10
17.2243769165211
 20
421.321692644884
 30
0.0
 40
3.5
 41
0.0
 71
     7
 72
     1
  1
67,6
  7
CONVERTER_11
 11
0.9999999999970619
 21
2.424068405545306E-6
 31
0.0
 73
     1
 44
0.60024009603842
  0
ENDBLK
  5
26C
330
264
100
AcDbEntity
  8
0
100
AcDbBlockEnd
  0
ENDSEC
  0
SECTION
  2
ENTITIES
  0
INSERT
  5
86
330
1F
100
AcDbEntity
  8
1
100
AcDbBlockReference
  2
1
 10
0.0
 20
0.0
 30
0.0
  0
ENDSEC
  0
SECTION
  2
OBJECTS
  0
DICTIONARY
  5
C
330
0
100
AcDbDictionary
281
     1
  3
ACAD_GROUP
350
D
  3
ACAD_LAYOUT
350
1A
  3
ACAD_MATERIAL
350
3B
  3
ACAD_MLEADERSTYLE
350
296
  3
ACAD_MLINESTYLE
350
17
  3
ACAD_PLOTSETTINGS
350
19
  3
ACAD_PLOTSTYLENAME
350
E
  3
ACAD_TABLESTYLE
350
295
  3
ACAD_VISUALSTYLE
350
2A
  0
DICTIONARY
  5
D
102
{ACAD_REACTORS
330
C
102
}
330
C
100
AcDbDictionary
281
     1
  0
DICTIONARY
  5
1A
102
{ACAD_REACTORS
330
C
102
}
330
C
100
AcDbDictionary
281
     1
  3
Layout1
350
1E
  3
Layout2
350
26
  3
Model
350
22
  0
DICTIONARY
  5
3B
102
{ACAD_REACTORS
330
C
102
}
330
C
100
AcDbDictionary
281
     1
  3
ByBlock
350
3D
  3
ByLayer
350
3C
  3
Global
350
3E
  0
DICTIONARY
  5
296
102
{ACAD_REACTORS
330
C
102
}
330
C
100
AcDbDictionary
281
     1
  0
DICTIONARY
  5
17
102
{ACAD_REACTORS
330
C
102
}
330
C
100
AcDbDictionary
281
     1
  3
Standard
350
18
  0
DICTIONARY
  5
19
102
{ACAD_REACTORS
330
C
102
}
330
C
100
AcDbDictionary
281
     1
  0
ACDBDICTIONARYWDFLT
  5
E
102
{ACAD_REACTORS
330
C
102
}
330
C
100
AcDbDictionary
281
     1
  3
Normal
350
F
100
AcDbDictionaryWithDefault
340
F
  0
DICTIONARY
  5
295
102
{ACAD_REACTORS
330
C
102
}
330
C
100
AcDbDictionary
281
     1
  0
DICTIONARY
  5
2A
102
{ACAD_REACTORS
330
C
102
}
330
C
100
AcDbDictionary
281
     1
  3
2dWireframe
350
2F
  3
3D Hidden
350
31
  3
3dWireframe
350
30
  3
Basic
350
32
  3
Brighten
350
36
  3
ColorChange
350
3A
  3
Conceptual
350
34
  3
Dim
350
35
  3
Facepattern
350
39
  3
Flat
350
2B
  3
FlatWithEdges
350
2C
  3
Gouraud
350
2D
  3
GouraudWithEdges
350
2E
  3
Linepattern
350
38
  3
Realistic
350
33
  3
Thicken
350
37
  0
LAYOUT
  5
1E
102
{ACAD_REACTORS
330
1A
102
}
330
1A
100
AcDbPlotSettings
  1

  2
none_device
  4

  6

 40
0.0
 41
0.0
 42
0.0
 43
0.0
 44
0.0
 45
0.0
 46
0.0
 47
0.0
 48
0.0
 49
0.0
140
0.0
141
0.0
142
1.0
143
1.0
 70
   688
 72
     0
 73
     0
 74
     5
  7

 75
    16
 76
     0
 77
     2
 78
   300
147
1.0
148
0.0
149
0.0
100
AcDbLayout
  1
Layout1
 70
     1
 71
     1
 10
0.0
 20
0.0
 11
12.0
 21
9.0
 12
0.0
 22
0.0
 32
0.0
 14
1.00000000000000E+20
 24
1.00000000000000E+20
 34
1.00000000000000E+20
 15
-1.00000000000000E+20
 25
-1.00000000000000E+20
 35
-1.00000000000000E+20
146
0.0
 13
0.0
 23
0.0
 33
0.0
 16
1.0
 26
0.0
 36
0.0
 17
0.0
 27
1.0
 37
0.0
 76
     0
330
1B
  0
LAYOUT
  5
26
102
{ACAD_REACTORS
330
1A
102
}
330
1A
100
AcDbPlotSettings
  1

  2
none_device
  4

  6

 40
0.0
 41
0.0
 42
0.0
 43
0.0
 44
0.0
 45
0.0
 46
0.0
 47
0.0
 48
0.0
 49
0.0
140
0.0
141
0.0
142
1.0
143
1.0
 70
   688
 72
     0
 73
     0
 74
     5
  7

 75
    16
 76
     0
 77
     2
 78
   300
147
1.0
148
0.0
149
0.0
100
AcDbLayout
  1
Layout2
 70
     1
 71
     2
 10
0.0
 20
0.0
 11
0.0
 21
0.0
 12
0.0
 22
0.0
 32
0.0
 14
0.0
 24
0.0
 34
0.0
 15
0.0
 25
0.0
 35
0.0
146
0.0
 13
0.0
 23
0.0
 33
0.0
 16
1.0
 26
0.0
 36
0.0
 17
0.0
 27
1.0
 37
0.0
 76
     0
330
23
  0
LAYOUT
  5
22
102
{ACAD_REACTORS
330
1A
102
}
330
1A
100
AcDbPlotSettings
  1

  2
none_device
  4

  6

 40
0.0
 41
0.0
 42
0.0
 43
0.0
 44
0.0
 45
0.0
 46
0.0
 47
0.0
 48
0.0
 49
0.0
140
0.0
141
0.0
142
1.0
143
1.0
 70
  1712
 72
     0
 73
     0
 74
     0
  7

 75
     0
 76
     0
 77
     2
 78
   300
147
1.0
148
0.0
149
0.0
100
AcDbLayout
  1
Model
 70
     1
 71
     0
 10
0.0
 20
0.0
 11
12.0
 21
9.0
 12
0.0
 22
0.0
 32
0.0
 14
-90.22500003548873
 24
324.7554916642615
 34
0.0
 15
206.7749999645093
 25
534.7554916642616
 35
0.0
146
0.0
 13
0.0
 23
0.0
 33
0.0
 16
1.0
 26
0.0
 36
0.0
 17
0.0
 27
1.0
 37
0.0
 76
     0
330
1F
331
29
  0
MATERIAL
  5
3D
102
{ACAD_REACTORS
330
3B
102
}
102
{ACAD_XDICTIONARY
360
291
102
}
330
3B
100
AcDbMaterial
  1
ByBlock
  0
MATERIAL
  5
3C
102
{ACAD_REACTORS
330
3B
102
}
102
{ACAD_XDICTIONARY
360
28F
102
}
330
3B
100
AcDbMaterial
  1
ByLayer
  0
MATERIAL
  5
3E
102
{ACAD_REACTORS
330
3B
102
}
102
{ACAD_XDICTIONARY
360
293
102
}
330
3B
100
AcDbMaterial
  1
Global
  0
MLINESTYLE
  5
18
102
{ACAD_REACTORS
330
17
102
}
330
17
100
AcDbMlineStyle
  2
Standard
 70
     0
  3

 62
   256
 51
90.0
 52
90.0
 71
     2
 49
0.5
 62
   256
  6
BYLAYER
 49
-0.5
 62
   256
  6
BYLAYER
  0
ACDBPLACEHOLDER
  5
F
102
{ACAD_REACTORS
330
E
102
}
330
E
  0
VISUALSTYLE
  5
2F
102
{ACAD_REACTORS
330
2A
102
}
102
{ACAD_XDICTIONARY
360
277
102
}
330
2A
100
AcDbVisualStyle
  2
2dWireframe
 70
     4
 71
     0
 72
     2
 73
     0
 90
        0
 40
-0.6
 41
-30.0
 62
     5
 63
     7
421
 16777215
 74
     1
 91
        4
 64
     7
 65
   257
 75
     1
175
     1
 42
1.0
 92
        0
 66
   257
 43
1.0
 76
     1
 77
     6
 78
     2
 67
     7
 79
     5
170
     0
171
     0
290
     0
174
     0
 93
        1
 44
0.0
173
     0
291
     0
 45
0.0
1001
ACAD
1000
AcDbSavedByObjectVersion
1070
     0
  0
VISUALSTYLE
  5
31
102
{ACAD_REACTORS
330
2A
102
}
102
{ACAD_XDICTIONARY
360
27B
102
}
330
2A
100
AcDbVisualStyle
  2
3D Hidden
 70
     6
 71
     1
 72
     2
 73
     2
 90
        0
 40
-0.6
 41
-30.0
 62
     5
 63
     7
421
 16777215
 74
     2
 91
        2
 64
     7
 65
   257
 75
     2
175
     1
 42
40.0
 92
        0
 66
   257
 43
1.0
 76
     1
 77
     6
 78
     2
 67
     7
 79
     3
170
     0
171
     0
290
     0
174
     0
 93
        1
 44
0.0
173
     0
291
     0
 45
0.0
1001
ACAD
1000
AcDbSavedByObjectVersion
1070
     0
  0
VISUALSTYLE
  5
30
102
{ACAD_REACTORS
330
2A
102
}
102
{ACAD_XDICTIONARY
360
279
102
}
330
2A
100
AcDbVisualStyle
  2
3dWireframe
 70
     5
 71
     0
 72
     2
 73
     0
 90
        0
 40
-0.6
 41
-30.0
 62
     5
 63
     7
421
 16777215
 74
     1
 91
        4
 64
     7
 65
   257
 75
     1
175
     1
 42
1.0
 92
        0
 66
   257
 43
1.0
 76
     1
 77
     6
 78
     2
 67
     7
 79
     5
170
     0
171
     0
290
     0
174
     0
 93
        1
 44
0.0
173
     0
291
     0
 45
0.0
1001
ACAD
1000
AcDbSavedByObjectVersion
1070
     0
  0
VISUALSTYLE
  5
32
102
{ACAD_REACTORS
330
2A
102
}
102
{ACAD_XDICTIONARY
360
27D
102
}
330
2A
100
AcDbVisualStyle
  2
Basic
 70
     7
 71
     1
 72
     0
 73
     1
 90
        0
 40
-0.6
 41
-30.0
 62
     5
 63
     7
421
 16777215
 74
     0
 91
        4
 64
     7
 65
   257
 75
     1
175
     1
 42
1.0
 92
        8
 66
     7
 43
1.0
 76
     1
 77
     6
 78
     2
 67
     7
 79
     5
170
     0
171
     0
290
     0
174
     0
 93
        1
 44
0.0
173
     0
291
     1
 45
0.0
1001
ACAD
1000
AcDbSavedByObjectVersion
1070
     0
  0
VISUALSTYLE
  5
36
102
{ACAD_REACTORS
330
2A
102
}
102
{ACAD_XDICTIONARY
360
285
102
}
330
2A
100
AcDbVisualStyle
  2
Brighten
 70
    12
 71
     2
 72
     2
 73
     0
 90
        0
 40
-0.6
 41
-30.0
 62
     5
 63
     7
421
 16777215
 74
     1
 91
        4
 64
     7
 65
   257
 75
     1
175
     1
 42
1.0
 92
        8
 66
     7
 43
1.0
 76
     1
 77
     6
 78
     2
 67
     7
 79
     5
170
     0
171
     0
290
     0
174
     0
 93
        1
 44
50.0
173
     0
291
     1
 45
0.0
1001
ACAD
1000
AcDbSavedByObjectVersion
1070
     0
  0
VISUALSTYLE
  5
3A
102
{ACAD_REACTORS
330
2A
102
}
102
{ACAD_XDICTIONARY
360
28D
102
}
330
2A
100
AcDbVisualStyle
  2
ColorChange
 70
    16
 71
     2
 72
     2
 73
     3
 90
        0
 40
-0.6
 41
-30.0
 62
     5
 63
     8
421
  8421504
 74
     1
 91
        4
 64
     7
 65
   257
 75
     1
175
     1
 42
1.0
 92
        8
 66
     8
424
  8421504
 43
1.0
 76
     1
 77
     6
 78
     2
 67
     7
 79
     5
170
     0
171
     0
290
     0
174
     0
 93
        1
 44
0.0
173
     0
291
     1
 45
0.0
1001
ACAD
1000
AcDbSavedByObjectVersion
1070
     0
  0
VISUALSTYLE
  5
34
102
{ACAD_REACTORS
330
2A
102
}
102
{ACAD_XDICTIONARY
360
281
102
}
330
2A
100
AcDbVisualStyle
  2
Conceptual
 70
     9
 71
     3
 72
     2
 73
     0
 90
        0
 40
-0.6
 41
-30.0
 62
     5
 63
     7
421
 16777215
 74
     2
 91
        2
 64
     7
 65
   257
 75
     1
175
     1
 42
40.0
 92
        8
 66
     7
 43
1.0
 76
     1
 77
     6
 78
     2
 67
     7
 79
     3
170
     0
171
     0
290
     0
174
     0
 93
        1
 44
0.0
173
     0
291
     0
 45
0.0
1001
ACAD
1000
AcDbSavedByObjectVersion
1070
     0
  0
VISUALSTYLE
  5
35
102
{ACAD_REACTORS
330
2A
102
}
102
{ACAD_XDICTIONARY
360
283
102
}
330
2A
100
AcDbVisualStyle
  2
Dim
 70
    11
 71
     2
 72
     2
 73
     0
 90
        0
 40
-0.6
 41
-30.0
 62
     5
 63
     7
421
 16777215
 74
     1
 91
        4
 64
     7
 65
   257
 75
     1
175
     1
 42
1.0
 92
        8
 66
     7
 43
1.0
 76
     1
 77
     6
 78
     2
 67
     7
 79
     5
170
     0
171
     0
290
     0
174
     0
 93
        1
 44
-50.0
173
     0
291
     1
 45
0.0
1001
ACAD
1000
AcDbSavedByObjectVersion
1070
     0
  0
VISUALSTYLE
  5
39
102
{ACAD_REACTORS
330
2A
102
}
102
{ACAD_XDICTIONARY
360
28B
102
}
330
2A
100
AcDbVisualStyle
  2
Facepattern
 70
    15
 71
     2
 72
     2
 73
     0
 90
        0
 40
-0.6
 41
-30.0
 62
     5
 63
     7
421
 16777215
 74
     1
 91
        4
 64
     7
 65
   257
 75
     1
175
     1
 42
1.0
 92
        8
 66
     7
 43
1.0
 76
     1
 77
     6
 78
     2
 67
     7
 79
     5
170
     0
171
     0
290
     0
174
     0
 93
        1
 44
0.0
173
     0
291
     1
 45
0.0
1001
ACAD
1000
AcDbSavedByObjectVersion
1070
     0
  0
VISUALSTYLE
  5
2B
102
{ACAD_REACTORS
330
2A
102
}
102
{ACAD_XDICTIONARY
360
26F
102
}
330
2A
100
AcDbVisualStyle
  2
Flat
 70
     0
 71
     2
 72
     1
 73
     1
 90
        2
 40
-0.6
 41
30.0
 62
     5
 63
     7
421
 16777215
 74
     0
 91
        4
 64
     7
 65
   257
 75
     1
175
     1
 42
1.0
 92
        8
 66
     7
 43
1.0
 76
     1
 77
     6
 78
     2
 67
     7
 79
     5
170
     0
171
     0
290
     0
174
     0
 93
       13
 44
0.0
173
     0
291
     1
 45
0.0
1001
ACAD
1000
AcDbSavedByObjectVersion
1070
     0
  0
VISUALSTYLE
  5
2C
102
{ACAD_REACTORS
330
2A
102
}
102
{ACAD_XDICTIONARY
360
271
102
}
330
2A
100
AcDbVisualStyle
  2
FlatWithEdges
 70
     1
 71
     2
 72
     1
 73
     1
 90
        2
 40
-0.6
 41
30.0
 62
     5
 63
     7
421
 16777215
 74
     1
 91
        4
 64
     7
 65
   257
 75
     1
175
     1
 42
1.0
 92
        0
 66
   257
 43
1.0
 76
     1
 77
     6
 78
     2
 67
     7
 79
     5
170
     0
171
     0
290
     0
174
     0
 93
       13
 44
0.0
173
     0
291
     1
 45
0.0
1001
ACAD
1000
AcDbSavedByObjectVersion
1070
     0
  0
VISUALSTYLE
  5
2D
102
{ACAD_REACTORS
330
2A
102
}
102
{ACAD_XDICTIONARY
360
273
102
}
330
2A
100
AcDbVisualStyle
  2
Gouraud
 70
     2
 71
     2
 72
     2
 73
     1
 90
        2
 40
-0.6
 41
30.0
 62
     5
 63
     7
421
 16777215
 74
     0
 91
        4
 64
     7
 65
   257
 75
     1
175
     1
 42
1.0
 92
        0
 66
     7
 43
1.0
 76
     1
 77
     6
 78
     2
 67
     7
 79
     5
170
     0
171
     0
290
     0
174
     0
 93
       13
 44
0.0
173
     0
291
     1
 45
0.0
1001
ACAD
1000
AcDbSavedByObjectVersion
1070
     0
  0
VISUALSTYLE
  5
2E
102
{ACAD_REACTORS
330
2A
102
}
102
{ACAD_XDICTIONARY
360
275
102
}
330
2A
100
AcDbVisualStyle
  2
GouraudWithEdges
 70
     3
 71
     2
 72
     2
 73
     1
 90
        2
 40
-0.6
 41
30.0
 62
     5
 63
     7
421
 16777215
 74
     1
 91
        4
 64
     7
 65
   257
 75
     1
175
     1
 42
1.0
 92
        0
 66
   257
 43
1.0
 76
     1
 77
     6
 78
     2
 67
     7
 79
     5
170
     0
171
     0
290
     0
174
     0
 93
       13
 44
0.0
173
     0
291
     1
 45
0.0
1001
ACAD
1000
AcDbSavedByObjectVersion
1070
     0
  0
VISUALSTYLE
  5
38
102
{ACAD_REACTORS
330
2A
102
}
102
{ACAD_XDICTIONARY
360
289
102
}
330
2A
100
AcDbVisualStyle
  2
Linepattern
 70
    14
 71
     2
 72
     2
 73
     0
 90
        0
 40
-0.6
 41
-30.0
 62
     5
 63
     7
421
 16777215
 74
     1
 91
        4
 64
     7
 65
   257
 75
     7
175
     7
 42
1.0
 92
        8
 66
     7
 43
1.0
 76
     1
 77
     6
 78
     2
 67
     7
 79
     5
170
     0
171
     0
290
     0
174
     0
 93
        1
 44
0.0
173
     0
291
     1
 45
0.0
1001
ACAD
1000
AcDbSavedByObjectVersion
1070
     0
  0
VISUALSTYLE
  5
33
102
{ACAD_REACTORS
330
2A
102
}
102
{ACAD_XDICTIONARY
360
27F
102
}
330
2A
100
AcDbVisualStyle
  2
Realistic
 70
     8
 71
     2
 72
     2
 73
     0
 90
        0
 40
-0.6
 41
-30.0
 62
     5
 63
     7
421
 16777215
 74
     1
 91
        0
 64
     7
 65
   257
 75
     1
175
     1
 42
1.0
 92
        8
 66
     8
424
  7895160
 43
1.0
 76
     1
 77
     6
 78
     2
 67
     7
 79
     5
170
     0
171
     0
290
     0
174
     0
 93
       13
 44
0.0
173
     0
291
     0
 45
0.0
1001
ACAD
1000
AcDbSavedByObjectVersion
1070
     0
  0
VISUALSTYLE
  5
37
102
{ACAD_REACTORS
330
2A
102
}
102
{ACAD_XDICTIONARY
360
287
102
}
330
2A
100
AcDbVisualStyle
  2
Thicken
 70
    13
 71
     2
 72
     2
 73
     0
 90
        0
 40
-0.6
 41
-30.0
 62
     5
 63
     7
421
 16777215
 74
     1
 91
        4
 64
     7
 65
   257
 75
     1
175
     1
 42
1.0
 92
       12
 66
     7
 43
1.0
 76
     1
 77
     6
 78
     2
 67
     7
 79
     5
170
     0
171
     0
290
     0
174
     0
 93
        1
 44
0.0
173
     0
291
     1
 45
0.0
1001
ACAD
1000
AcDbSavedByObjectVersion
1070
     0
  0
DICTIONARY
  5
291
330
3D
100
AcDbDictionary
280
     1
281
     1
  3
ACAD_XREC_ROUNDTRIP
360
292
  0
DICTIONARY
  5
28F
330
3C
100
AcDbDictionary
280
     1
281
     1
  3
ACAD_XREC_ROUNDTRIP
360
290
  0
DICTIONARY
  5
293
330
3E
100
AcDbDictionary
280
     1
281
     1
  3
ACAD_XREC_ROUNDTRIP
360
294
  0
DICTIONARY
  5
277
330
2F
100
AcDbDictionary
280
     1
281
     1
  3
ACAD_XREC_ROUNDTRIP
360
278
  0
DICTIONARY
  5
27B
330
31
100
AcDbDictionary
280
     1
281
     1
  3
ACAD_XREC_ROUNDTRIP
360
27C
  0
DICTIONARY
  5
279
330
30
100
AcDbDictionary
280
     1
281
     1
  3
ACAD_XREC_ROUNDTRIP
360
27A
  0
DICTIONARY
  5
27D
330
32
100
AcDbDictionary
280
     1
281
     1
  3
ACAD_XREC_ROUNDTRIP
360
27E
  0
DICTIONARY
  5
285
330
36
100
AcDbDictionary
280
     1
281
     1
  3
ACAD_XREC_ROUNDTRIP
360
286
  0
DICTIONARY
  5
28D
330
3A
100
AcDbDictionary
280
     1
281
     1
  3
ACAD_XREC_ROUNDTRIP
360
28E
  0
DICTIONARY
  5
281
330
34
100
AcDbDictionary
280
     1
281
     1
  3
ACAD_XREC_ROUNDTRIP
360
282
  0
DICTIONARY
  5
283
330
35
100
AcDbDictionary
280
     1
281
     1
  3
ACAD_XREC_ROUNDTRIP
360
284
  0
DICTIONARY
  5
28B
330
39
100
AcDbDictionary
280
     1
281
     1
  3
ACAD_XREC_ROUNDTRIP
360
28C
  0
DICTIONARY
  5
26F
330
2B
100
AcDbDictionary
280
     1
281
     1
  3
ACAD_XREC_ROUNDTRIP
360
270
  0
DICTIONARY
  5
271
330
2C
100
AcDbDictionary
280
     1
281
     1
  3
ACAD_XREC_ROUNDTRIP
360
272
  0
DICTIONARY
  5
273
330
2D
100
AcDbDictionary
280
     1
281
     1
  3
ACAD_XREC_ROUNDTRIP
360
274
  0
DICTIONARY
  5
275
330
2E
100
AcDbDictionary
280
     1
281
     1
  3
ACAD_XREC_ROUNDTRIP
360
276
  0
DICTIONARY
  5
289
330
38
100
AcDbDictionary
280
     1
281
     1
  3
ACAD_XREC_ROUNDTRIP
360
28A
  0
DICTIONARY
  5
27F
330
33
100
AcDbDictionary
280
     1
281
     1
  3
ACAD_XREC_ROUNDTRIP
360
280
  0
DICTIONARY
  5
287
330
37
100
AcDbDictionary
280
     1
281
     1
  3
ACAD_XREC_ROUNDTRIP
360
288
  0
XRECORD
  5
292
102
{ACAD_REACTORS
330
291
102
}
330
291
100
AcDbXrecord
280
     1
102
MATERIAL
148
0.0
149
0.0
149
0.0
 93
        0
 94
      127
282
     0
 72
     1
 77
     1
171
     1
175
     1
179
     1
273
     0
  0
XRECORD
  5
290
102
{ACAD_REACTORS
330
28F
102
}
330
28F
100
AcDbXrecord
280
     1
102
MATERIAL
148
0.0
149
0.0
149
0.0
 93
        0
 94
      127
282
     0
 72
     1
 77
     1
171
     1
175
     1
179
     1
273
     0
  0
XRECORD
  5
294
102
{ACAD_REACTORS
330
293
102
}
330
293
100
AcDbXrecord
280
     1
102
MATERIAL
148
0.0
149
0.0
149
0.0
 93
        0
 94
      127
282
     0
 72
     1
 77
     1
171
     1
175
     1
179
     1
273
     0
  0
XRECORD
  5
278
102
{ACAD_REACTORS
330
277
102
}
330
277
100
AcDbXrecord
280
     1
102
RTVSPropertyOp0
 70
     1
102
RTVSPropertyOp1
 70
     1
102
RTVSPropertyOp2
 70
     1
102
RTVSPropertyOp3
 70
     1
102
RTVSPropertyOp4
 70
     1
102
RTVSPropertyOp5
 70
     1
102
RTVSPropertyOp6
 70
     1
102
RTVSPropertyOp7
 70
     1
102
RTVSPropertyOp8
 70
     1
102
RTVSPropertyOp9
 70
     1
102
RTVSPropertyOp10
 70
     1
102
RTVSPropertyOp11
 70
     1
102
RTVSPropertyOp12
 70
     1
102
RTVSPropertyOp13
 70
     1
102
RTVSPropertyOp14
 70
     1
102
RTVSPropertyOp15
 70
     1
102
RTVSPropertyOp16
 70
     1
102
RTVSPropertyOp17
 70
     1
102
RTVSPropertyOp18
 70
     1
102
RTVSPropertyOp19
 70
     1
102
RTVSPropertyOp20
 70
     1
102
RTVSPropertyOp21
 70
     1
102
RTVSPropertyOp22
 70
     1
102
RTVSPropertyOp23
 70
     1
102
RTVSPropertyOp24
 70
     1
102
RTVSPropertyOp25
 70
     1
102
RTVSPropertyOp26
 70
     1
102
RTVSPropertyOp27
 70
     1
102
RTVSPropertyOp28
 70
     1
102
RTVSPropertyOp29
 70
     1
102
RTVSPropertyOp30
 70
     1
102
RTVSPropertyOp31
 70
     1
102
RTVSPropertyOp32
 70
     1
  0
XRECORD
  5
27C
102
{ACAD_REACTORS
330
27B
102
}
330
27B
100
AcDbXrecord
280
     1
102
RTVSPropertyOp0
 70
     1
102
RTVSPropertyOp1
 70
     1
102
RTVSPropertyOp2
 70
     1
102
RTVSPropertyOp3
 70
     1
102
RTVSPropertyOp4
 70
     1
102
RTVSPropertyOp5
 70
     1
102
RTVSPropertyOp6
 70
     1
102
RTVSPropertyOp7
 70
     1
102
RTVSPropertyOp8
 70
     1
102
RTVSPropertyOp9
 70
     1
102
RTVSPropertyOp10
 70
     1
102
RTVSPropertyOp11
 70
     1
102
RTVSPropertyOp12
 70
     1
102
RTVSPropertyOp13
 70
     1
102
RTVSPropertyOp14
 70
     1
102
RTVSPropertyOp15
 70
     1
102
RTVSPropertyOp16
 70
     1
102
RTVSPropertyOp17
 70
     1
102
RTVSPropertyOp18
 70
     1
102
RTVSPropertyOp19
 70
     1
102
RTVSPropertyOp20
 70
     1
102
RTVSPropertyOp21
 70
     1
102
RTVSPropertyOp22
 70
     1
102
RTVSPropertyOp23
 70
     1
102
RTVSPropertyOp24
 70
     1
102
RTVSPropertyOp25
 70
     1
102
RTVSPropertyOp26
 70
     1
102
RTVSPropertyOp27
 70
     1
102
RTVSPropertyOp28
 70
     1
102
RTVSPropertyOp29
 70
     1
102
RTVSPropertyOp30
 70
     1
102
RTVSPropertyOp31
 70
     1
102
RTVSPropertyOp32
 70
     1
  0
XRECORD
  5
27A
102
{ACAD_REACTORS
330
279
102
}
330
279
100
AcDbXrecord
280
     1
102
RTVSPropertyOp0
 70
     1
102
RTVSPropertyOp1
 70
     1
102
RTVSPropertyOp2
 70
     1
102
RTVSPropertyOp3
 70
     1
102
RTVSPropertyOp4
 70
     1
102
RTVSPropertyOp5
 70
     1
102
RTVSPropertyOp6
 70
     1
102
RTVSPropertyOp7
 70
     1
102
RTVSPropertyOp8
 70
     1
102
RTVSPropertyOp9
 70
     1
102
RTVSPropertyOp10
 70
     1
102
RTVSPropertyOp11
 70
     1
102
RTVSPropertyOp12
 70
     1
102
RTVSPropertyOp13
 70
     1
102
RTVSPropertyOp14
 70
     1
102
RTVSPropertyOp15
 70
     1
102
RTVSPropertyOp16
 70
     1
102
RTVSPropertyOp17
 70
     1
102
RTVSPropertyOp18
 70
     1
102
RTVSPropertyOp19
 70
     1
102
RTVSPropertyOp20
 70
     1
102
RTVSPropertyOp21
 70
     1
102
RTVSPropertyOp22
 70
     1
102
RTVSPropertyOp23
 70
     1
102
RTVSPropertyOp24
 70
     1
102
RTVSPropertyOp25
 70
     1
102
RTVSPropertyOp26
 70
     1
102
RTVSPropertyOp27
 70
     1
102
RTVSPropertyOp28
 70
     1
102
RTVSPropertyOp29
 70
     1
102
RTVSPropertyOp30
 70
     1
102
RTVSPropertyOp31
 70
     1
102
RTVSPropertyOp32
 70
     1
  0
XRECORD
  5
27E
102
{ACAD_REACTORS
330
27D
102
}
330
27D
100
AcDbXrecord
280
     1
102
RTVSPropertyOp0
 70
     1
102
RTVSPropertyOp1
 70
     1
102
RTVSPropertyOp2
 70
     1
102
RTVSPropertyOp3
 70
     1
102
RTVSPropertyOp4
 70
     1
102
RTVSPropertyOp5
 70
     1
102
RTVSPropertyOp6
 70
     1
102
RTVSPropertyOp7
 70
     1
102
RTVSPropertyOp8
 70
     1
102
RTVSPropertyOp9
 70
     1
102
RTVSPropertyOp10
 70
     1
102
RTVSPropertyOp11
 70
     1
102
RTVSPropertyOp12
 70
     1
102
RTVSPropertyOp13
 70
     1
102
RTVSPropertyOp14
 70
     1
102
RTVSPropertyOp15
 70
     1
102
RTVSPropertyOp16
 70
     1
102
RTVSPropertyOp17
 70
     1
102
RTVSPropertyOp18
 70
     1
102
RTVSPropertyOp19
 70
     1
102
RTVSPropertyOp20
 70
     1
102
RTVSPropertyOp21
 70
     1
102
RTVSPropertyOp22
 70
     1
102
RTVSPropertyOp23
 70
     1
102
RTVSPropertyOp24
 70
     1
102
RTVSPropertyOp25
 70
     1
102
RTVSPropertyOp26
 70
     1
102
RTVSPropertyOp27
 70
     1
102
RTVSPropertyOp28
 70
     1
102
RTVSPropertyOp29
 70
     1
102
RTVSPropertyOp30
 70
     1
102
RTVSPropertyOp31
 70
     1
102
RTVSPropertyOp32
 70
     1
  0
XRECORD
  5
286
102
{ACAD_REACTORS
330
285
102
}
330
285
100
AcDbXrecord
280
     1
102
RTVSPropertyOp0
 70
     1
102
RTVSPropertyOp1
 70
     1
102
RTVSPropertyOp2
 70
     1
102
RTVSPropertyOp3
 70
     1
102
RTVSPropertyOp4
 70
     1
102
RTVSPropertyOp5
 70
     1
102
RTVSPropertyOp6
 70
     1
102
RTVSPropertyOp7
 70
     1
102
RTVSPropertyOp8
 70
     1
102
RTVSPropertyOp9
 70
     1
102
RTVSPropertyOp10
 70
     1
102
RTVSPropertyOp11
 70
     1
102
RTVSPropertyOp12
 70
     1
102
RTVSPropertyOp13
 70
     1
102
RTVSPropertyOp14
 70
     1
102
RTVSPropertyOp15
 70
     1
102
RTVSPropertyOp16
 70
     1
102
RTVSPropertyOp17
 70
     1
102
RTVSPropertyOp18
 70
     1
102
RTVSPropertyOp19
 70
     1
102
RTVSPropertyOp20
 70
     1
102
RTVSPropertyOp21
 70
     1
102
RTVSPropertyOp22
 70
     1
102
RTVSPropertyOp23
 70
     1
102
RTVSPropertyOp24
 70
     1
102
RTVSPropertyOp25
 70
     1
102
RTVSPropertyOp26
 70
     1
102
RTVSPropertyOp27
 70
     1
102
RTVSPropertyOp28
 70
     1
102
RTVSPropertyOp29
 70
     1
102
RTVSPropertyOp30
 70
     1
102
RTVSPropertyOp31
 70
     1
102
RTVSPropertyOp32
 70
     1
  0
XRECORD
  5
28E
102
{ACAD_REACTORS
330
28D
102
}
330
28D
100
AcDbXrecord
280
     1
102
RTVSPropertyOp0
 70
     1
102
RTVSPropertyOp1
 70
     1
102
RTVSPropertyOp2
 70
     1
102
RTVSPropertyOp3
 70
     1
102
RTVSPropertyOp4
 70
     1
102
RTVSPropertyOp5
 70
     1
102
RTVSPropertyOp6
 70
     1
102
RTVSPropertyOp7
 70
     1
102
RTVSPropertyOp8
 70
     1
102
RTVSPropertyOp9
 70
     1
102
RTVSPropertyOp10
 70
     1
102
RTVSPropertyOp11
 70
     1
102
RTVSPropertyOp12
 70
     1
102
RTVSPropertyOp13
 70
     1
102
RTVSPropertyOp14
 70
     1
102
RTVSPropertyOp15
 70
     1
102
RTVSPropertyOp16
 70
     1
102
RTVSPropertyOp17
 70
     1
102
RTVSPropertyOp18
 70
     1
102
RTVSPropertyOp19
 70
     1
102
RTVSPropertyOp20
 70
     1
102
RTVSPropertyOp21
 70
     1
102
RTVSPropertyOp22
 70
     1
102
RTVSPropertyOp23
 70
     1
102
RTVSPropertyOp24
 70
     1
102
RTVSPropertyOp25
 70
     1
102
RTVSPropertyOp26
 70
     1
102
RTVSPropertyOp27
 70
     1
102
RTVSPropertyOp28
 70
     1
102
RTVSPropertyOp29
 70
     1
102
RTVSPropertyOp30
 70
     1
102
RTVSPropertyOp31
 70
     1
102
RTVSPropertyOp32
 70
     1
  0
XRECORD
  5
282
102
{ACAD_REACTORS
330
281
102
}
330
281
100
AcDbXrecord
280
     1
102
RTVSPropertyOp0
 70
     1
102
RTVSPropertyOp1
 70
     1
102
RTVSPropertyOp2
 70
     1
102
RTVSPropertyOp3
 70
     1
102
RTVSPropertyOp4
 70
     1
102
RTVSPropertyOp5
 70
     1
102
RTVSPropertyOp6
 70
     1
102
RTVSPropertyOp7
 70
     1
102
RTVSPropertyOp8
 70
     1
102
RTVSPropertyOp9
 70
     1
102
RTVSPropertyOp10
 70
     1
102
RTVSPropertyOp11
 70
     1
102
RTVSPropertyOp12
 70
     1
102
RTVSPropertyOp13
 70
     1
102
RTVSPropertyOp14
 70
     1
102
RTVSPropertyOp15
 70
     1
102
RTVSPropertyOp16
 70
     1
102
RTVSPropertyOp17
 70
     1
102
RTVSPropertyOp18
 70
     1
102
RTVSPropertyOp19
 70
     1
102
RTVSPropertyOp20
 70
     1
102
RTVSPropertyOp21
 70
     1
102
RTVSPropertyOp22
 70
     1
102
RTVSPropertyOp23
 70
     1
102
RTVSPropertyOp24
 70
     1
102
RTVSPropertyOp25
 70
     1
102
RTVSPropertyOp26
 70
     1
102
RTVSPropertyOp27
 70
     1
102
RTVSPropertyOp28
 70
     1
102
RTVSPropertyOp29
 70
     1
102
RTVSPropertyOp30
 70
     1
102
RTVSPropertyOp31
 70
     1
102
RTVSPropertyOp32
 70
     1
  0
XRECORD
  5
284
102
{ACAD_REACTORS
330
283
102
}
330
283
100
AcDbXrecord
280
     1
102
RTVSPropertyOp0
 70
     1
102
RTVSPropertyOp1
 70
     1
102
RTVSPropertyOp2
 70
     1
102
RTVSPropertyOp3
 70
     1
102
RTVSPropertyOp4
 70
     1
102
RTVSPropertyOp5
 70
     1
102
RTVSPropertyOp6
 70
     1
102
RTVSPropertyOp7
 70
     1
102
RTVSPropertyOp8
 70
     1
102
RTVSPropertyOp9
 70
     1
102
RTVSPropertyOp10
 70
     1
102
RTVSPropertyOp11
 70
     1
102
RTVSPropertyOp12
 70
     1
102
RTVSPropertyOp13
 70
     1
102
RTVSPropertyOp14
 70
     1
102
RTVSPropertyOp15
 70
     1
102
RTVSPropertyOp16
 70
     1
102
RTVSPropertyOp17
 70
     1
102
RTVSPropertyOp18
 70
     1
102
RTVSPropertyOp19
 70
     1
102
RTVSPropertyOp20
 70
     1
102
RTVSPropertyOp21
 70
     1
102
RTVSPropertyOp22
 70
     1
102
RTVSPropertyOp23
 70
     1
102
RTVSPropertyOp24
 70
     1
102
RTVSPropertyOp25
 70
     1
102
RTVSPropertyOp26
 70
     1
102
RTVSPropertyOp27
 70
     1
102
RTVSPropertyOp28
 70
     1
102
RTVSPropertyOp29
 70
     1
102
RTVSPropertyOp30
 70
     1
102
RTVSPropertyOp31
 70
     1
102
RTVSPropertyOp32
 70
     1
  0
XRECORD
  5
28C
102
{ACAD_REACTORS
330
28B
102
}
330
28B
100
AcDbXrecord
280
     1
102
RTVSPropertyOp0
 70
     1
102
RTVSPropertyOp1
 70
     1
102
RTVSPropertyOp2
 70
     1
102
RTVSPropertyOp3
 70
     1
102
RTVSPropertyOp4
 70
     1
102
RTVSPropertyOp5
 70
     1
102
RTVSPropertyOp6
 70
     1
102
RTVSPropertyOp7
 70
     1
102
RTVSPropertyOp8
 70
     1
102
RTVSPropertyOp9
 70
     1
102
RTVSPropertyOp10
 70
     1
102
RTVSPropertyOp11
 70
     1
102
RTVSPropertyOp12
 70
     1
102
RTVSPropertyOp13
 70
     1
102
RTVSPropertyOp14
 70
     1
102
RTVSPropertyOp15
 70
     1
102
RTVSPropertyOp16
 70
     1
102
RTVSPropertyOp17
 70
     1
102
RTVSPropertyOp18
 70
     1
102
RTVSPropertyOp19
 70
     1
102
RTVSPropertyOp20
 70
     1
102
RTVSPropertyOp21
 70
     1
102
RTVSPropertyOp22
 70
     1
102
RTVSPropertyOp23
 70
     1
102
RTVSPropertyOp24
 70
     1
102
RTVSPropertyOp25
 70
     1
102
RTVSPropertyOp26
 70
     1
102
RTVSPropertyOp27
 70
     1
102
RTVSPropertyOp28
 70
     1
102
RTVSPropertyOp29
 70
     1
102
RTVSPropertyOp30
 70
     1
102
RTVSPropertyOp31
 70
     1
102
RTVSPropertyOp32
 70
     1
  0
XRECORD
  5
270
102
{ACAD_REACTORS
330
26F
102
}
330
26F
100
AcDbXrecord
280
     1
102
RTVSPropertyOp0
 70
     1
102
RTVSPropertyOp1
 70
     1
102
RTVSPropertyOp2
 70
     1
102
RTVSPropertyOp3
 70
     1
102
RTVSPropertyOp4
 70
     1
102
RTVSPropertyOp5
 70
     1
102
RTVSPropertyOp6
 70
     1
102
RTVSPropertyOp7
 70
     1
102
RTVSPropertyOp8
 70
     1
102
RTVSPropertyOp9
 70
     1
102
RTVSPropertyOp10
 70
     1
102
RTVSPropertyOp11
 70
     1
102
RTVSPropertyOp12
 70
     1
102
RTVSPropertyOp13
 70
     1
102
RTVSPropertyOp14
 70
     1
102
RTVSPropertyOp15
 70
     1
102
RTVSPropertyOp16
 70
     1
102
RTVSPropertyOp17
 70
     1
102
RTVSPropertyOp18
 70
     1
102
RTVSPropertyOp19
 70
     1
102
RTVSPropertyOp20
 70
     1
102
RTVSPropertyOp21
 70
     1
102
RTVSPropertyOp22
 70
     1
102
RTVSPropertyOp23
 70
     1
102
RTVSPropertyOp24
 70
     1
102
RTVSPropertyOp25
 70
     1
102
RTVSPropertyOp26
 70
     1
102
RTVSPropertyOp27
 70
     1
102
RTVSPropertyOp28
 70
     1
102
RTVSPropertyOp29
 70
     1
102
RTVSPropertyOp30
 70
     1
102
RTVSPropertyOp31
 70
     1
102
RTVSPropertyOp32
 70
     1
  0
XRECORD
  5
272
102
{ACAD_REACTORS
330
271
102
}
330
271
100
AcDbXrecord
280
     1
102
RTVSPropertyOp0
 70
     1
102
RTVSPropertyOp1
 70
     1
102
RTVSPropertyOp2
 70
     1
102
RTVSPropertyOp3
 70
     1
102
RTVSPropertyOp4
 70
     1
102
RTVSPropertyOp5
 70
     1
102
RTVSPropertyOp6
 70
     1
102
RTVSPropertyOp7
 70
     1
102
RTVSPropertyOp8
 70
     1
102
RTVSPropertyOp9
 70
     1
102
RTVSPropertyOp10
 70
     1
102
RTVSPropertyOp11
 70
     1
102
RTVSPropertyOp12
 70
     1
102
RTVSPropertyOp13
 70
     1
102
RTVSPropertyOp14
 70
     1
102
RTVSPropertyOp15
 70
     1
102
RTVSPropertyOp16
 70
     1
102
RTVSPropertyOp17
 70
     1
102
RTVSPropertyOp18
 70
     1
102
RTVSPropertyOp19
 70
     1
102
RTVSPropertyOp20
 70
     1
102
RTVSPropertyOp21
 70
     1
102
RTVSPropertyOp22
 70
     1
102
RTVSPropertyOp23
 70
     1
102
RTVSPropertyOp24
 70
     1
102
RTVSPropertyOp25
 70
     1
102
RTVSPropertyOp26
 70
     1
102
RTVSPropertyOp27
 70
     1
102
RTVSPropertyOp28
 70
     1
102
RTVSPropertyOp29
 70
     1
102
RTVSPropertyOp30
 70
     1
102
RTVSPropertyOp31
 70
     1
102
RTVSPropertyOp32
 70
     1
  0
XRECORD
  5
274
102
{ACAD_REACTORS
330
273
102
}
330
273
100
AcDbXrecord
280
     1
102
RTVSPropertyOp0
 70
     1
102
RTVSPropertyOp1
 70
     1
102
RTVSPropertyOp2
 70
     1
102
RTVSPropertyOp3
 70
     1
102
RTVSPropertyOp4
 70
     1
102
RTVSPropertyOp5
 70
     1
102
RTVSPropertyOp6
 70
     1
102
RTVSPropertyOp7
 70
     1
102
RTVSPropertyOp8
 70
     1
102
RTVSPropertyOp9
 70
     1
102
RTVSPropertyOp10
 70
     1
102
RTVSPropertyOp11
 70
     1
102
RTVSPropertyOp12
 70
     1
102
RTVSPropertyOp13
 70
     1
102
RTVSPropertyOp14
 70
     1
102
RTVSPropertyOp15
 70
     1
102
RTVSPropertyOp16
 70
     1
102
RTVSPropertyOp17
 70
     1
102
RTVSPropertyOp18
 70
     1
102
RTVSPropertyOp19
 70
     1
102
RTVSPropertyOp20
 70
     1
102
RTVSPropertyOp21
 70
     1
102
RTVSPropertyOp22
 70
     1
102
RTVSPropertyOp23
 70
     1
102
RTVSPropertyOp24
 70
     1
102
RTVSPropertyOp25
 70
     1
102
RTVSPropertyOp26
 70
     1
102
RTVSPropertyOp27
 70
     1
102
RTVSPropertyOp28
 70
     1
102
RTVSPropertyOp29
 70
     1
102
RTVSPropertyOp30
 70
     1
102
RTVSPropertyOp31
 70
     1
102
RTVSPropertyOp32
 70
     1
  0
XRECORD
  5
276
102
{ACAD_REACTORS
330
275
102
}
330
275
100
AcDbXrecord
280
     1
102
RTVSPropertyOp0
 70
     1
102
RTVSPropertyOp1
 70
     1
102
RTVSPropertyOp2
 70
     1
102
RTVSPropertyOp3
 70
     1
102
RTVSPropertyOp4
 70
     1
102
RTVSPropertyOp5
 70
     1
102
RTVSPropertyOp6
 70
     1
102
RTVSPropertyOp7
 70
     1
102
RTVSPropertyOp8
 70
     1
102
RTVSPropertyOp9
 70
     1
102
RTVSPropertyOp10
 70
     1
102
RTVSPropertyOp11
 70
     1
102
RTVSPropertyOp12
 70
     1
102
RTVSPropertyOp13
 70
     1
102
RTVSPropertyOp14
 70
     1
102
RTVSPropertyOp15
 70
     1
102
RTVSPropertyOp16
 70
     1
102
RTVSPropertyOp17
 70
     1
102
RTVSPropertyOp18
 70
     1
102
RTVSPropertyOp19
 70
     1
102
RTVSPropertyOp20
 70
     1
102
RTVSPropertyOp21
 70
     1
102
RTVSPropertyOp22
 70
     1
102
RTVSPropertyOp23
 70
     1
102
RTVSPropertyOp24
 70
     1
102
RTVSPropertyOp25
 70
     1
102
RTVSPropertyOp26
 70
     1
102
RTVSPropertyOp27
 70
     1
102
RTVSPropertyOp28
 70
     1
102
RTVSPropertyOp29
 70
     1
102
RTVSPropertyOp30
 70
     1
102
RTVSPropertyOp31
 70
     1
102
RTVSPropertyOp32
 70
     1
  0
XRECORD
  5
28A
102
{ACAD_REACTORS
330
289
102
}
330
289
100
AcDbXrecord
280
     1
102
RTVSPropertyOp0
 70
     1
102
RTVSPropertyOp1
 70
     1
102
RTVSPropertyOp2
 70
     1
102
RTVSPropertyOp3
 70
     1
102
RTVSPropertyOp4
 70
     1
102
RTVSPropertyOp5
 70
     1
102
RTVSPropertyOp6
 70
     1
102
RTVSPropertyOp7
 70
     1
102
RTVSPropertyOp8
 70
     1
102
RTVSPropertyOp9
 70
     1
102
RTVSPropertyOp10
 70
     1
102
RTVSPropertyOp11
 70
     1
102
RTVSPropertyOp12
 70
     1
102
RTVSPropertyOp13
 70
     1
102
RTVSPropertyOp14
 70
     1
102
RTVSPropertyOp15
 70
     1
102
RTVSPropertyOp16
 70
     1
102
RTVSPropertyOp17
 70
     1
102
RTVSPropertyOp18
 70
     1
102
RTVSPropertyOp19
 70
     1
102
RTVSPropertyOp20
 70
     1
102
RTVSPropertyOp21
 70
     1
102
RTVSPropertyOp22
 70
     1
102
RTVSPropertyOp23
 70
     1
102
RTVSPropertyOp24
 70
     1
102
RTVSPropertyOp25
 70
     1
102
RTVSPropertyOp26
 70
     1
102
RTVSPropertyOp27
 70
     1
102
RTVSPropertyOp28
 70
     1
102
RTVSPropertyOp29
 70
     1
102
RTVSPropertyOp30
 70
     1
102
RTVSPropertyOp31
 70
     1
102
RTVSPropertyOp32
 70
     1
  0
XRECORD
  5
280
102
{ACAD_REACTORS
330
27F
102
}
330
27F
100
AcDbXrecord
280
     1
102
RTVSPropertyOp0
 70
     1
102
RTVSPropertyOp1
 70
     1
102
RTVSPropertyOp2
 70
     1
102
RTVSPropertyOp3
 70
     1
102
RTVSPropertyOp4
 70
     1
102
RTVSPropertyOp5
 70
     1
102
RTVSPropertyOp6
 70
     1
102
RTVSPropertyOp7
 70
     1
102
RTVSPropertyOp8
 70
     1
102
RTVSPropertyOp9
 70
     1
102
RTVSPropertyOp10
 70
     1
102
RTVSPropertyOp11
 70
     1
102
RTVSPropertyOp12
 70
     1
102
RTVSPropertyOp13
 70
     1
102
RTVSPropertyOp14
 70
     1
102
RTVSPropertyOp15
 70
     1
102
RTVSPropertyOp16
 70
     1
102
RTVSPropertyOp17
 70
     1
102
RTVSPropertyOp18
 70
     1
102
RTVSPropertyOp19
 70
     1
102
RTVSPropertyOp20
 70
     1
102
RTVSPropertyOp21
 70
     1
102
RTVSPropertyOp22
 70
     1
102
RTVSPropertyOp23
 70
     1
102
RTVSPropertyOp24
 70
     1
102
RTVSPropertyOp25
 70
     1
102
RTVSPropertyOp26
 70
     1
102
RTVSPropertyOp27
 70
     1
102
RTVSPropertyOp28
 70
     1
102
RTVSPropertyOp29
 70
     1
102
RTVSPropertyOp30
 70
     1
102
RTVSPropertyOp31
 70
     1
102
RTVSPropertyOp32
 70
     1
  0
XRECORD
  5
288
102
{ACAD_REACTORS
330
287
102
}
330
287
100
AcDbXrecord
280
     1
102
RTVSPropertyOp0
 70
     1
102
RTVSPropertyOp1
 70
     1
102
RTVSPropertyOp2
 70
     1
102
RTVSPropertyOp3
 70
     1
102
RTVSPropertyOp4
 70
     1
102
RTVSPropertyOp5
 70
     1
102
RTVSPropertyOp6
 70
     1
102
RTVSPropertyOp7
 70
     1
102
RTVSPropertyOp8
 70
     1
102
RTVSPropertyOp9
 70
     1
102
RTVSPropertyOp10
 70
     1
102
RTVSPropertyOp11
 70
     1
102
RTVSPropertyOp12
 70
     1
102
RTVSPropertyOp13
 70
     1
102
RTVSPropertyOp14
 70
     1
102
RTVSPropertyOp15
 70
     1
102
RTVSPropertyOp16
 70
     1
102
RTVSPropertyOp17
 70
     1
102
RTVSPropertyOp18
 70
     1
102
RTVSPropertyOp19
 70
     1
102
RTVSPropertyOp20
 70
     1
102
RTVSPropertyOp21
 70
     1
102
RTVSPropertyOp22
 70
     1
102
RTVSPropertyOp23
 70
     1
102
RTVSPropertyOp24
 70
     1
102
RTVSPropertyOp25
 70
     1
102
RTVSPropertyOp26
 70
     1
102
RTVSPropertyOp27
 70
     1
102
RTVSPropertyOp28
 70
     1
102
RTVSPropertyOp29
 70
     1
102
RTVSPropertyOp30
 70
     1
102
RTVSPropertyOp31
 70
     1
102
RTVSPropertyOp32
 70
     1
  0
ENDSEC
  0
EOF
